TORRENTS45.XYZ

Скачать Миленькие штучки / Les jolies choses / Pretty Things (2001) DVDRip [H.264]


Миленькие штучки / Les jolies choses / Pretty Things (2001) DVDRip
Производство: Франция | C.A.P.A.C., Hugo Films, M6 Films
Жанр: Драма

Режиссер: Жиль Паке-Бреннер
Продюсер: Стефани Марсиль
Актеры: Марион Котийяр, Стоми Багси, Патрик Брюэль, Титофф, Офелия Винтер, Тони Амони, Оливье Гранье, Од Бреннер, Аксель Ренуар, Фридерик Сорель

Описание:
Мари и Люси — сестры-близнецы. Кроме внешнего сходства, у них нет ничего общего: ни характера, ни способностей, ни отношения к жизни. Люси, не имея хорошего голоса, мечтает записать свой диск и упрямо идет к цели, хотя ее друг Николя не верит в безголосую певицу. На помощь сестре приходит Мари. Она будет петь вместо Люси… В этой детективной истории будут успех и неудачи, обманы и подмены… Но чем она закончится, если на кон поставлена известность и слава?


Возраст: 16+ (зрителям, достигшим 16 лет)
Рейтинг MPAA: этот продукт не был классифицирован

Продолжительность: 01:38:46
Качество видео: DVDRip
Перевод: Профессиональный (многоголосый закадровый)
Субтитры: Отсутствуют

Видео: AVC/H.264, 716x552@1018x552, ~2500 kbps
Аудио #1: AC3, 6 ch, 448 kbps | Русский
Аудио #2: AC3, 6 ch, 448 kbps | Французский

Mediainfo:


General
Unique ID : 238786557821087746282504998418939265691 (0xB3A49E42848452C64793B63B0E6A429B)
Complete name : E:\Les jolies choses (2001).mkv
Format : Matroska
Format version : Version 4 / Version 2
File size : 2.34 GiB
Duration : 1h 38mn
Overall bit rate : 3 397 Kbps
Encoded date : UTC 2017-07-02T17:04:15Z
Writing application : HandBrake 1.0.7 2017040900
Writing library : Lavf57.7.2

Video
ID : 1
Format : AVC
Format/Info : Advanced Video Codec
Format profile : Main@L3.1
Format settings, CABAC : Yes
Format settings, ReFrames : 4 frames
Codec ID : V_MPEG4/ISO/AVC
Duration : 1h 38mn
Bit rate : 2 500 Kbps
Width : 716 pixels
Height : 552 pixels
Display aspect ratio : 1.85:1
Original display aspect ratio : 1.85:1
Frame rate mode : Constant
Frame rate : 25.000 fps
Color space : YUV
Chroma subsampling : 4:2:0
Bit depth : 8 bits
Scan type : Progressive
Bits/(Pixel*Frame) : 0.253
Stream size : 1.68 GiB (72%)
Writing library : x264 core 148 r2708 86b7198
Encoding settings : cabac=1 / ref=3 / deblock=1:0:0 / analyse=0x1:0x111 / me=hex / subme=7 / psy=1 / psy_rd=1.00:0.00 / mixed_ref=1 / me_range=16 / chroma_me=1 / trellis=1 / 8x8dct=0 / cqm=0 / deadzone=21,11 / fast_pskip=1 / chroma_qp_offset=-2 / threads=12 / lookahead_threads=2 / sliced_threads=0 / nr=0 / decimate=1 / interlaced=0 / bluray_compat=0 / constrained_intra=0 / bframes=3 / b_pyramid=2 / b_adapt=1 / b_bias=0 / direct=1 / weightb=1 / open_gop=0 / weightp=2 / keyint=250 / keyint_min=25 / scenecut=40 / intra_refresh=0 / rc_lookahead=40 / rc=abr / mbtree=1 / bitrate=2500 / ratetol=1.0 / qcomp=0.60 / qpmin=0 / qpmax=69 / qpstep=4 / vbv_maxrate=14000 / vbv_bufsize=14000 / nal_hrd=none / filler=0 / ip_ratio=1.40 / aq=1:1.00
Default : Yes
Forced : No
Color range : Limited
Color primaries : BT.601 PAL
Transfer characteristics : BT.709
Matrix coefficients : BT.601

Audio #1
ID : 2
Format : AC-3
Format/Info : Audio Coding 3
Mode extension : CM (complete main)
Format settings, Endianness : Big
Codec ID : A_AC3
Duration : 1h 38mn
Bit rate mode : Constant
Bit rate : 448 Kbps
Channel(s) : 6 channels
Channel positions : Front: L C R, Side: L R, LFE
Sampling rate : 48.0 KHz
Compression mode : Lossy
Delay relative to video : -5ms
Stream size : 317 MiB (13%)
Title : Surround
Language : Russian
Default : Yes
Forced : No

Audio #2
ID : 3
Format : AC-3
Format/Info : Audio Coding 3
Mode extension : CM (complete main)
Format settings, Endianness : Big
Codec ID : A_AC3
Duration : 1h 38mn
Bit rate mode : Constant
Bit rate : 448 Kbps
Channel(s) : 6 channels
Channel positions : Front: L C R, Side: L R, LFE
Sampling rate : 48.0 KHz
Compression mode : Lossy
Delay relative to video : -5ms
Stream size : 317 MiB (13%)
Title : Surround
Language : French
Default : No
Forced : No

Menu
00:00:00.000 : :Chapter 1
00:05:46.320 : :Chapter 2
00:09:45.520 : :Chapter 3
00:16:30.600 : :Chapter 4
00:24:57.600 : :Chapter 5
00:28:24.560 : :Chapter 6
00:36:59.880 : :Chapter 7
00:48:49.160 : :Chapter 8
00:57:13.040 : :Chapter 9
01:09:21.040 : :Chapter 10
01:16:00.400 : :Chapter 11
01:21:54.520 : :Chapter 12
Скриншоты:


Все одноименные релизы в Клубе
Детали торрента:
Название:Миленькие штучки / Les jolies choses / Pretty Things (2001) DVDRip [H.264]
Дата добавления:02 Июл 2017 20:43:42
Размер:2,34 GB
Раздают:1
Качают:0
Форум:Зарубежные Фильмы (HD*Rip/LQ, DVDRip, SATRip, VHSRip)

All rights reserved © 2015-2018