TORRENTS45.XYZ

Скачать Баскетбол. Чемпионат Европы 2017. Женщины. 1/4 финала. Турция – Греция (22.06.2017) IPTV [H.264]


Баскетбол. Чемпионат Европы 2017. Женщины. 1/4 финала. Турция – Греция (22.06.2017) IPTV [H.264]
Телекомпания: Матч! Игра
Жанр: Спорт

Комментатор: Виктор Шестопалов

Описание: 22 июня 2017 года, четверг. 16:00 МСК
Чемпионат Европы 2017. Женщины. Плей-офф.
1/4 финала
Турция – Греция
Стадион: O2-Арена (Прага, Чехия), 1081 зритель (6 % при вместимости 16805)
Судьи: Жасмина Юрас (Сербия), Май Форсберг (Дания), Борис Креич (Словения)

Релиз от: A$taroth

Продолжительность: 01:25:28
Качество видео: IPTV
Язык озвучки: Русский
Субтитры: отсутствуют

Видео: AVC/H.264, 720x576@1047x576, ~2592 Kbps
Аудио: MP2, 2 ch, 48 kHz, 192 Kbps

Mediainfo:

Код: выделить все

Общее
Уникальный идентификатор                 : 172085297139559790388136919524822891488 (0x81766C346D86D93C924AD24694323BE0)
Полное имя                               : F:\SPORT\Баскетбол\Чемпионат Европы-2017\(22.06.2017)_FIBA EuroBasket Women 2017.QF2. Turkey - Greece.mkv
Формат                                   : Matroska
Версия формата                           : Version 4 / Version 2
Размер файла                             : 1,66 Гбайт
Продолжительность                        : 1 ч. 25 м.
Общий поток                              : 2787 Кбит/сек
Дата кодирования                         : UTC 2017-06-26 17:32:57
Программа кодирования                    : mkvmerge v13.0.0 ('The Juggler') 32bit
Библиотека кодирования                   : libebml v1.3.4 + libmatroska v1.4.5

Видео
Идентификатор                            : 1
Формат                                   : AVC
Формат/Информация                        : Advanced Video Codec
Профиль формата                          : High@L3
Параметр CABAC формата                   : Да
Параметр ReFrames формата                : 4 кадра
Идентификатор кодека                     : V_MPEG4/ISO/AVC
Продолжительность                        : 1 ч. 25 м.
Битрейт                                  : 2592 Кбит/сек
Ширина                                   : 720 пикселей
Высота                                   : 576 пикселей
Соотношение сторон                       : 16:9
Режим частоты кадров                     : Постоянный
Частота кадров                           : 50,000 кадров/сек
Частота кадров в оригинале               : 25,000 кадров/сек
Стандарт вещания                         : Component
Цветовое пространство                    : YUV
Субдискретизация насыщенности            : 4:2:0
Битовая глубина                          : 8 бит
Тип развёртки                            : Чересстрочная
Метод сохранения типа развёртки          : Раздельные поля
Порядок развёртки                        : Верхнее поле первое
Бит/(Пиксели*Кадры)                      : 0.125
Размер потока                            : 1,55 Гбайт (93%)
Default                                  : Да
Forced                                   : Нет
Цветовой диапазон                        : Limited
Основные цвета                           : BT.601 PAL
Характеристики трансфера                 : BT.470 System B, BT.470 System G
Коэффициенты матрицы                     : BT.601

Аудио
Идентификатор                            : 2
Формат                                   : MPEG Audio
Версия формата                           : Version 1
Профиль формата                          : Layer 2
Идентификатор кодека                     : A_MPEG/L2
Идентификатор кодека/Подсказка           : MP2
Продолжительность                        : 1 ч. 25 м.
Вид битрейта                             : Постоянный
Битрейт                                  : 192 Кбит/сек
Каналы                                   : 2 канала
Частота                                  : 48,0 КГц
Частота кадров                           : 41,667 кадра/сек (1152 spf)
Метод сжатия                             : С потерями
Размер потока                            : 117 Мбайт (7%)
Язык                                     : Russian
Default                                  : Да
Forced                                   : Нет
Скриншоты:



Детали торрента:
Название:Баскетбол. Чемпионат Европы 2017. Женщины. 1/4 финала. Турция – Греция (22.06.2017) IPTV [H.264]
Дата добавления:26 Июн 2017 23:31:35
Размер:1,66 GB
Раздают:
Качают:0
Форум:Архив Документалистики и TV

All rights reserved © 2015-2018