TORRENTS45.XYZ

Скачать Морская душа (2007) DVDRip (серии 1-32 из 32)


Морская душа (2007) DVDRip (серии 1-32 из 32)
Производство: Россия
Жанр: комедия

Режиссер: Дмитрий Федоров, Елена Шилова
Актеры: Александр Воробьев, Михаил Жигалов, Вадим Колганов, Александр Мохов, Филипп Бажин, Владимир Бельдиян, Кирилл Грацинский, Анна Гуляренко, Григорий Данцигер, Андрей Кайков и др.

Описание:
Герои фильма — команда военного корабля «Владимир». Жизнь моряков связана не только с опасностью и риском, но и полна радости, геройства и приключений. Чем дольше разлуки, тем радостнее встречи — на берегу моряков ждут их жены, подруги и дети, всегда желающих своим любимым героям счастливого плавания и быстрого возвращения.


Возраст: 16+ (зрителям, достигшим 16 лет)

Продолжительность: ~00:46:00 серия
Качество видео: DVDRip

Видео: DivX 5, 704х384 (1,85:1), ~1425 Kbps
Аудио: AC3, 2 ch, 192 Kbps

Mediainfo:


Общее
Полное имя : E:\Новый релиз фаилы\Морская душа 2007 DVDRip\Morskaya.dusha.(01.serija.iz.32).2007.DivX.DVDRip.avi
Формат : AVI
Формат/Информация : Audio Video Interleave
Размер файла : 540 Мбайт
Продолжительность : 46 м.
Общий поток : 1627 Кбит/сек
Программа кодирования : VirtualDubMod 1.5.10.2 (build 2540/release)
Библиотека кодирования : VirtualDubMod build 2540/release

Видео
Идентификатор : 0
Формат : MPEG-4 Visual
Параметр BVOP формата : 1
Параметр QPel формата : Нет
Параметр GMC формата : Без точки перехода
Параметр матрицы формата : Default (H.263)
Режим смешивания : Сжатый битовый поток
Идентификатор кодека : DX50
Идентификатор кодека/Подсказка : DivX 5
Продолжительность : 46 м.
Битрейт : 1425 Кбит/сек
Ширина : 704 пикселя
Высота : 384 пикселя
Соотношение сторон : 1,85:1
Частота кадров : 25,000 кадров/сек
Цветовое пространство : YUV
Субдискретизация насыщенности : 4:2:0
Битовая глубина : 8 бит
Тип развёртки : Прогрессивная
Метод сжатия : С потерями
Бит/(Пиксели*Кадры) : 0.211
Размер потока : 473 Мбайт (88%)
Библиотека кодирования : DivX 5.2.1 (WaffleDay) (UTC 2004-09-08)

Аудио
Идентификатор : 1
Формат : AC-3
Формат/Информация : Audio Coding 3
Расширение режима : CM (complete main)
Параметр Endianness формата : Big
Идентификатор кодека : 2000
Продолжительность : 46 м.
Вид битрейта : Постоянный
Битрейт : 192 Кбит/сек
Каналы : 2 канала
Расположение каналов : Front: L R
Частота : 48,0 КГц
Битовая глубина : 16 бит
Метод сжатия : С потерями
Размер потока : 63,8 Мбайт (12%)
Выравнивание : Разделение по промежуткам
Продолжительность промежутка : 40 мс. (1,00 видеокадр)
Время предзагрузки промежутка : 500 мс.
Скриншоты:


Все одноименные релизы в Клубе
Детали торрента:
Название:Морская душа (2007) DVDRip (серии 1-32 из 32)
Дата добавления:25 Июн 2017 15:00:20
Размер:16,9 GB
Раздают:1
Качают:0
Форум:Солдаты

All rights reserved © 2015-2018