TORRENTS45.XYZ

Скачать Алые паруса-2017. Пиротехническое шоу (23/06/2017) WEB-DL [H.264] [MP4|1920x1080]


Алые паруса-2017. Пиротехническое шоу (23/06/2017) WEB-DL
Телекомпания: 5 канал
Жанр: Документальный, Видовой, Реальное ТВ

Описание:
В Петербурге с огромным размахом отгремел праздник для выпускников «Алые Паруса - 2017». На кадрах видно, что шведский корабль The Kronor, который является главным украшением праздника, вошёл в Неву и появился перед многочисленными зрителями в сопровождении симфонической музыки и яркого пиротехнического шоу.
По предварительным данным, на Дворцовой площади посмотреть шоу собралось около 100 тысяч человек.

Релиз от: RiperAM
Продолжительность: 00:23:48
Качество видео: WEB-DL

Видео: AVC/H.264, 1920x1080, ~4466 kbps
Аудио: AAC, 2 ch, 128 kbps

Mediainfo:


Общее
Полное имя : Fireworks.Alye.2017.mp4
Формат : MPEG-4
Профиль формата : Base Media
Идентификатор кодека : isom (isom/iso2/avc1/mp41)
Размер файла : 783 Мбайт
Продолжительность : 23 м. 48 с.
Общий поток : 4600 Кбит/сек
Программа кодирования : Lavf54.63.104

Видео
Идентификатор : 1
Формат : AVC
Формат/Информация : Advanced Video Codec
Профиль формата : High@L3.1
Параметр CABAC формата : Да
Параметр ReFrames формата : 4 кадра
Идентификатор кодека : avc1
Идентификатор кодека/Информация : Advanced Video Coding
Продолжительность : 23 м. 48 с.
Битрейт : 4466 Кбит/сек
Ширина : 1920 пикселей
Высота : 1080 пикселей
Соотношение сторон : 16:9
Режим частоты кадров : Переменный
Частота кадров : 24,954 кадров/сек
Минимальная частота кадров : 24,929 кадров/сек
Максимальная частота кадров : 24,979 кадров/сек
Цветовое пространство : YUV
Субдискретизация насыщенности : 4:2:0
Битовая глубина : 8 бит
Тип развёртки : Прогрессивная
Бит/(Пиксели*Кадры) : 0.086
Размер потока : 760 Мбайт (97%)

Аудио
Идентификатор : 2
Формат : AAC
Формат/Информация : Advanced Audio Codec
Профиль формата : LC
Идентификатор кодека : 40
Продолжительность : 23 м. 48 с.
Duration_LastFrame : -21 мс.
Вид битрейта : Постоянный
Битрейт : 128 Кбит/сек
Каналы : 2 канала
Расположение каналов : Front: L R
Частота : 48,0 КГц
Частота кадров : 46,875 кадров/сек (1024 spf)
Метод сжатия : С потерями
Размер потока : 21,8 Мбайт (3%)
Default : Да
AlternateGroup/String : 1
Скриншоты:


Все одноименные релизы в Клубе
Детали торрента:
Название:Алые паруса-2017. Пиротехническое шоу (23/06/2017) WEB-DL [H.264] [MP4|1920x1080]
Дата добавления:24 Июн 2017 14:24:10
Размер:783 MB
Раздают:2
Качают:0
Форум:Мобильное Видео

All rights reserved © 2015-2018