TORRENTS45.XYZ

Скачать Футбол. Кубок конфедераций 2017. Групповой этап. Группа A. 1-й тур. Россия – Новая Зеландия (17.06.2017) HDTVRip


Футбол. Кубок конфедераций 2017. Групповой этап. Группа A. 1-й тур. Россия – Новая Зеландия (17.06.2017) HDTVRip
Телекомпания: Матч ТВ HD
Жанр: Спорт

Комментаторы: Роман Гутцайт, Константин Генич

Описание: 17 июня 2017 года, суббота. 18:00 МСК
Кубок конфедераций FIFA 2017. Групповой этап.
Группа A. 1-й тур
Россия – Новая Зеландия
Стадион: Санкт-Петербург (Санкт-Петербург, Россия), 50251 зритель (74 % при вместимости 68134)
Главный судья: Вильмар Рольдан Перес (Колумбия)
Ассистент: Александер Гусман Бонилья (Колумбия)
Ассистент: Кристиан Де ла Крус Ачиканой (Колумбия)
Резервный: Марк Гейгер (США)

Релиз от: Багга17879

Продолжительность: 01:56:36
Качество видео: HDTVRip
Язык озвучки: Русский
Субтитры: отсутствуют

Видео: XVID, 704x400@711x400, ~1700 Kbps
Аудио: MP3, 2 ch, 48 kHz, 128 Kbps

Mediainfo:


Общее
Полное имя : F:\SPORT\Футбол\FIFA Confederations Cup 2017\(17.06.2017)_FIFA Confederations Cup 2017.GS.Gr A.1t. Russia – New Zealand.avi
Формат : AVI
Формат/Информация : Audio Video Interleave
Профиль формата : OpenDML
Размер файла : 1,50 Гбайт
Продолжительность : 1 ч. 56 м.
Общий поток : 1843 Кбит/сек
Программа кодирования : XviD4PSP 6.0 / 54.29.105

Видео
Идентификатор : 0
Формат : MPEG-4 Visual
Профиль формата : Advanced Simple@L5
Параметр BVOP формата : Да
Параметр QPel формата : Нет
Параметр GMC формата : Без точки перехода
Параметр матрицы формата : Default (H.263)
Идентификатор кодека : XVID
Идентификатор кодека/Подсказка : XviD
Продолжительность : 1 ч. 56 м.
Битрейт : 1700 Кбит/сек
Ширина : 704 пикселя
Высота : 400 пикселей
Соотношение сторон : 16:9
Частота кадров : 25,000 кадров/сек
Цветовое пространство : YUV
Субдискретизация насыщенности : 4:2:0
Битовая глубина : 8 бит
Тип развёртки : Прогрессивная
Метод сжатия : С потерями
Бит/(Пиксели*Кадры) : 0.242
Размер потока : 1,38 Гбайт (92%)
Библиотека кодирования : XviD 64

Аудио
Идентификатор : 1
Формат : MPEG Audio
Версия формата : Version 1
Профиль формата : Layer 3
Режим : Joint stereo
Идентификатор кодека : 55
Идентификатор кодека/Подсказка : MP3
Продолжительность : 1 ч. 56 м.
Вид битрейта : Постоянный
Битрейт : 128 Кбит/сек
Каналы : 2 канала
Частота : 48,0 КГц
Метод сжатия : С потерями
Размер потока : 107 Мбайт (7%)
Выравнивание : Соединение по промежуткам
Продолжительность промежутка : 24 мс. (0,60 видеокадр)
Библиотека кодирования : LAME3.99.4
Скриншоты:


Кубок Конфедераций 2017 в Клубе

Смотреть Online

http://moonwalk.cc/video/4904221e5f3b432d/iframe
Детали торрента:
Название:Футбол. Кубок конфедераций 2017. Групповой этап. Группа A. 1-й тур. Россия – Новая Зеландия (17.06.2017) HDTVRip
Дата добавления:18 Июн 2017 12:41:07
Размер:1,5 GB
Раздают:
Качают:0
Форум:Футбол

All rights reserved © 2015-2018