TORRENTS45.XYZ

Скачать Craig G - The Kingpin (1989) [FLAC|Lossless|tracks + .cue] <Hip-Hop>


Craig G - The Kingpin (1989)
Жанр: Hip-Hop
Издание: Atlantic
Продолжительность: 00:49:45

Кодек: FLAC
Битрейт: Lossless
Тип рипа: tracks + .cue

Треклист:
01. Love Thang
02. Dopest Duo
03. Rock The House
04. First Day Of School
05. Shootin' The Gift
06. Slammin'
07. Turn This House Into A Home
08. The Kingpin
09. The Final Chapter
10. Why'd You Have To Go?
11. Smooth
12. The Blues

Отчёт XLD :


X Lossless Decoder version 20080926 (93.3)

XLD extraction logfile from 2009-01-20 17:03:51 -0500

Craig G / The Kingpin

Used drive : ATAPI DVD C DH52C2P (revision MP55)

Use cdparanoia mode : YES (CDParanoia III 10.2 engine)
Disable audio cache : OK for the drive with cache less than 2750KB
Make use of C2 pointers : NO
Read offset correction : 6
Max retry count : 100

TOC of the extracted CD
Track | Start | Length | Start sector | End sector
---------------------------------------------------------
1 | 00:00:33 | 04:41:20 | 33 | 21127
2 | 04:41:53 | 04:21:50 | 21128 | 40752
3 | 09:03:28 | 05:09:50 | 40753 | 63977
4 | 14:13:03 | 04:04:02 | 63978 | 82279
5 | 18:17:05 | 03:46:68 | 82280 | 99297
6 | 22:03:73 | 04:01:15 | 99298 | 117387
7 | 26:05:13 | 05:44:52 | 117388 | 143239
8 | 31:49:65 | 03:22:03 | 143240 | 158392
9 | 35:11:68 | 05:12:30 | 158393 | 181822
10 | 40:24:23 | 05:05:67 | 181823 | 204764
11 | 45:30:15 | 02:59:28 | 204765 | 218217
12 | 48:29:43 | 01:31:15 | 218218 | 225057

Track 01
Filename : /Volumes/Ext-2/Torrents/FLAC/Craig G - The Kingpin/01 Craig G - Love Thang.flac

CRC32 hash (test run) : 900D62FB
CRC32 hash : 900D62FB
CRC32 hash (skip zero) : 01C8696F
AccurateRip signature : 996E0E59
->Track not present in AccurateRip database.
Statistics
Read error : 0
Skipped (treated as error) : 0
Edge jitter error (maybe fixed) : 0
Atom jitter error (maybe fixed) : 0
Drift error (maybe fixed) : 0
Dropped bytes error (maybe fixed) : 0
Duplicated bytes error (maybe fixed) : 0
Inconsistency in error sectors : 0

Track 02
Filename : /Volumes/Ext-2/Torrents/FLAC/Craig G - The Kingpin/02 Craig G - Dopest Duo.flac

CRC32 hash (test run) : DBB3545D
CRC32 hash : DBB3545D
CRC32 hash (skip zero) : 29C4F177
AccurateRip signature : DCD81B0B
->Track not present in AccurateRip database.
Statistics
Read error : 0
Skipped (treated as error) : 0
Edge jitter error (maybe fixed) : 0
Atom jitter error (maybe fixed) : 0
Drift error (maybe fixed) : 0
Dropped bytes error (maybe fixed) : 0
Duplicated bytes error (maybe fixed) : 0
Inconsistency in error sectors : 0

Track 03
Filename : /Volumes/Ext-2/Torrents/FLAC/Craig G - The Kingpin/03 Craig G - Rock The House.flac

CRC32 hash (test run) : 734A005D
CRC32 hash : 734A005D
CRC32 hash (skip zero) : BA4A4EF8
AccurateRip signature : 6B714F8E
->Track not present in AccurateRip database.
Statistics
Read error : 0
Skipped (treated as error) : 0
Edge jitter error (maybe fixed) : 0
Atom jitter error (maybe fixed) : 0
Drift error (maybe fixed) : 0
Dropped bytes error (maybe fixed) : 0
Duplicated bytes error (maybe fixed) : 0
Inconsistency in error sectors : 0

Track 04
Filename : /Volumes/Ext-2/Torrents/FLAC/Craig G - The Kingpin/04 Craig G - First Day Of School.flac

CRC32 hash (test run) : 8C45DCBB
CRC32 hash : 8C45DCBB
CRC32 hash (skip zero) : D00CD413
AccurateRip signature : 81F287E9
->Track not present in AccurateRip database.
Statistics
Read error : 0
Skipped (treated as error) : 0
Edge jitter error (maybe fixed) : 0
Atom jitter error (maybe fixed) : 0
Drift error (maybe fixed) : 0
Dropped bytes error (maybe fixed) : 0
Duplicated bytes error (maybe fixed) : 0
Inconsistency in error sectors : 0

Track 05
Filename : /Volumes/Ext-2/Torrents/FLAC/Craig G - The Kingpin/05 Craig G - Shootin' The Gift.flac

CRC32 hash (test run) : 15B4D5B3
CRC32 hash : 15B4D5B3
CRC32 hash (skip zero) : 1389B876
AccurateRip signature : 5EE897AB
->Track not present in AccurateRip database.
Statistics
Read error : 0
Skipped (treated as error) : 0
Edge jitter error (maybe fixed) : 0
Atom jitter error (maybe fixed) : 0
Drift error (maybe fixed) : 0
Dropped bytes error (maybe fixed) : 0
Duplicated bytes error (maybe fixed) : 0
Inconsistency in error sectors : 0

Track 06
Filename : /Volumes/Ext-2/Torrents/FLAC/Craig G - The Kingpin/06 Craig G - Slammin'.flac

CRC32 hash (test run) : 6F7D586C
CRC32 hash : 6F7D586C
CRC32 hash (skip zero) : 0FFC89CC
AccurateRip signature : 4A0694EF
->Track not present in AccurateRip database.
Statistics
Read error : 0
Skipped (treated as error) : 0
Edge jitter error (maybe fixed) : 0
Atom jitter error (maybe fixed) : 0
Drift error (maybe fixed) : 0
Dropped bytes error (maybe fixed) : 0
Duplicated bytes error (maybe fixed) : 0
Inconsistency in error sectors : 0

Track 07
Filename : /Volumes/Ext-2/Torrents/FLAC/Craig G - The Kingpin/07 Craig G - Turn This House Into A Home.flac

CRC32 hash (test run) : 0E83959B
CRC32 hash : 0E83959B
CRC32 hash (skip zero) : 7E205751
AccurateRip signature : 7B401F51
->Track not present in AccurateRip database.
Statistics
Read error : 0
Skipped (treated as error) : 0
Edge jitter error (maybe fixed) : 0
Atom jitter error (maybe fixed) : 0
Drift error (maybe fixed) : 0
Dropped bytes error (maybe fixed) : 0
Duplicated bytes error (maybe fixed) : 0
Inconsistency in error sectors : 0

Track 08
Filename : /Volumes/Ext-2/Torrents/FLAC/Craig G - The Kingpin/08 Craig G - The Kingpin.flac

CRC32 hash (test run) : 044BF07F
CRC32 hash : 044BF07F
CRC32 hash (skip zero) : 1419308D
AccurateRip signature : 41D09089
->Track not present in AccurateRip database.
Statistics
Read error : 0
Skipped (treated as error) : 0
Edge jitter error (maybe fixed) : 0
Atom jitter error (maybe fixed) : 0
Drift error (maybe fixed) : 0
Dropped bytes error (maybe fixed) : 0
Duplicated bytes error (maybe fixed) : 0
Inconsistency in error sectors : 0

Track 09
Filename : /Volumes/Ext-2/Torrents/FLAC/Craig G - The Kingpin/09 Craig G - The Final Chapter.flac

CRC32 hash (test run) : 8C2066E4
CRC32 hash : 8C2066E4
CRC32 hash (skip zero) : 4AB8388D
AccurateRip signature : 4D05AC91
->Track not present in AccurateRip database.
Statistics
Read error : 0
Skipped (treated as error) : 0
Edge jitter error (maybe fixed) : 0
Atom jitter error (maybe fixed) : 0
Drift error (maybe fixed) : 0
Dropped bytes error (maybe fixed) : 0
Duplicated bytes error (maybe fixed) : 0
Inconsistency in error sectors : 0

Track 10
Filename : /Volumes/Ext-2/Torrents/FLAC/Craig G - The Kingpin/10 Craig G - Why'd You Have To Go?.flac

CRC32 hash (test run) : 35217176
CRC32 hash : 35217176
CRC32 hash (skip zero) : 1E812FAD
AccurateRip signature : E4461BF9
->Track not present in AccurateRip database.
Statistics
Read error : 0
Skipped (treated as error) : 0
Edge jitter error (maybe fixed) : 0
Atom jitter error (maybe fixed) : 0
Drift error (maybe fixed) : 0
Dropped bytes error (maybe fixed) : 0
Duplicated bytes error (maybe fixed) : 0
Inconsistency in error sectors : 0

Track 11
Filename : /Volumes/Ext-2/Torrents/FLAC/Craig G - The Kingpin/11 Craig G - Smooth.flac

CRC32 hash (test run) : 998C7230
CRC32 hash : 998C7230
CRC32 hash (skip zero) : C9A73BA9
AccurateRip signature : AE84E516
->Track not present in AccurateRip database.
Statistics
Read error : 0
Skipped (treated as error) : 0
Edge jitter error (maybe fixed) : 0
Atom jitter error (maybe fixed) : 0
Drift error (maybe fixed) : 0
Dropped bytes error (maybe fixed) : 0
Duplicated bytes error (maybe fixed) : 0
Inconsistency in error sectors : 0

Track 12
Filename : /Volumes/Ext-2/Torrents/FLAC/Craig G - The Kingpin/12 Craig G - The Blues.flac

CRC32 hash (test run) : 06DAED3E
CRC32 hash : 06DAED3E
CRC32 hash (skip zero) : 08D00AC2
AccurateRip signature : C8817C43
->Track not present in AccurateRip database.
Statistics
Read error : 0
Skipped (treated as error) : 0
Edge jitter error (maybe fixed) : 0
Atom jitter error (maybe fixed) : 0
Drift error (maybe fixed) : 0
Dropped bytes error (maybe fixed) : 0
Duplicated bytes error (maybe fixed) : 0
Inconsistency in error sectors : 0

No errors occurred

End of status report

Cue Sheet (.cue):


TITLE "The Kingpin"
PERFORMER "Craig G"
REM GENRE "Hip-Hop"
REM DATE 1989
FILE "01 - Love Thang.wav" WAVE
TRACK 01 AUDIO
TITLE "Love Thang"
INDEX 00 00:00:00
INDEX 01 00:00:33
TRACK 02 AUDIO
TITLE "Dopest Duo"
INDEX 00 04:39:67
FILE "02 - Dopest Duo.wav" WAVE
INDEX 01 00:00:00
TRACK 03 AUDIO
TITLE "Rock The House"
INDEX 00 04:20:00
FILE "03 - Rock The House.wav" WAVE
INDEX 01 00:00:00
TRACK 04 AUDIO
TITLE "First Day Of School"
INDEX 00 05:08:57
FILE "04 - First Day Of School.wav" WAVE
INDEX 01 00:00:00
TRACK 05 AUDIO
TITLE "Shootin' The Gift"
INDEX 00 04:03:02
FILE "05 - Shootin' The Gift.wav" WAVE
INDEX 01 00:00:00
TRACK 06 AUDIO
TITLE "Slammin'"
INDEX 00 03:46:03
FILE "06 - Slammin'.wav" WAVE
INDEX 01 00:00:00
TRACK 07 AUDIO
TITLE "Turn This House Into A Home"
INDEX 00 03:58:40
FILE "07 - Turn This House Into A Home.wav" WAVE
INDEX 01 00:00:00
TRACK 08 AUDIO
TITLE "The Kingpin"
INDEX 00 05:43:07
FILE "08 - The Kingpin.wav" WAVE
INDEX 01 00:00:00
TRACK 09 AUDIO
TITLE "The Final Chapter"
INDEX 00 03:21:13
FILE "09 - The Final Chapter.wav" WAVE
INDEX 01 00:00:00
TRACK 10 AUDIO
TITLE "Why'd You Have To Go?"
INDEX 00 05:10:57
FILE "10 - Why'd You Have To Go?.wav" WAVE
INDEX 01 00:00:00
TRACK 11 AUDIO
TITLE "Smooth"
INDEX 00 05:05:07
FILE "11 - Smooth.wav" WAVE
INDEX 01 00:00:00
TRACK 12 AUDIO
TITLE "The Blues"
INDEX 00 02:57:43
FILE "12 - The Blues.wav" WAVE
INDEX 01 00:00:00

Отчёт auCDtect Task manager:


-----------------------

DON'T MODIFY THIS FILE

-----------------------

PERFORMER: auCDtect Task Manager, ver. 1.6.0 RC1 build 1.6.0.1
Copyright (c) 2008-2010 y-soft. All rights reserved
http://y-soft.org

ANALYZER: auCDtect: CD records authenticity detector, version 0.8.2
Copyright (c) 2004 Oleg Berngardt. All rights reserved.
Copyright (c) 2004 Alexander Djourik. All rights reserved.

FILE: 12 - The Blues.flac
Size: 7309411 Hash: A5FCF14445B0DABF2E09813630E88920 Accuracy: -m0
Conclusion: CDDA 100%
Signature: FACB1112FB425ACB0A69FFD0B448133BBC325109
FILE: 11 - Smooth.flac
Size: 16334736 Hash: C23AC3D3C52586998CF9562495C7DDF1 Accuracy: -m0
Conclusion: CDDA 100%
Signature: 7B7702FF15E9E7F95988E8CFF985BF3DD99EC950
FILE: 10 - Why'd You Have To Go.flac
Size: 23216230 Hash: 761AFCE72F21569BE50A70F48073C420 Accuracy: -m0
Conclusion: CDDA 100%
Signature: 91CC0D8A86348FEAE0D97DC5735C6DF0D3BFE9DC
FILE: 09 - The Final Chapter.flac
Size: 31822064 Hash: 4B6E4A4E28DD77AC5F8881394ADB9951 Accuracy: -m0
Conclusion: CDDA 100%
Signature: 5C2FF759C2A6455A346F5EEAA5E4051F0989D770
FILE: 08 - The Kingpin.flac
Size: 18212121 Hash: 8088EB1F72F854C1956234A2E4134254 Accuracy: -m0
Conclusion: CDDA 100%
Signature: 845B56CA2718FDFC372C3460A944DF0D32F7FE75
FILE: 07 - Turn This House Into A Home.flac
Size: 33133570 Hash: 7250843009CB347AF7B82759237A0B0C Accuracy: -m0
Conclusion: CDDA 100%
Signature: 456D5C11751A8194B2BE7FDA2EE6C3D7BF47A4D9
FILE: 06 - Slammin'.flac
Size: 23972679 Hash: FAE1F0579F6A5069F89EF2200A9FF04B Accuracy: -m0
Conclusion: CDDA 99%
Signature: 648EE964736B4A6311361BC3534D7C98FF0E3824
FILE: 05 - Shootin' The Gift.flac
Size: 19517651 Hash: 46A5F11D8B2E835F139519F0DC6596B4 Accuracy: -m0
Conclusion: CDDA 99%
Signature: 6605EAA1F5888CA9BFEF3D4C2B8475BF13CBAF09
FILE: 04 - First Day Of School.flac
Size: 19163103 Hash: AFF87A42FAC4E5492D594B94ABFF3231 Accuracy: -m0
Conclusion: CDDA 86%
Signature: 7149E3E6102B768990D4E0B39E0337AF89A3CCEA
FILE: 03 - Rock The House.flac
Size: 34565591 Hash: D0F71CF70D12824258F6AEDFC4DF3659 Accuracy: -m0
Conclusion: CDDA 100%
Signature: 17B156E818C476319CE62FC6314403A48F182A82
FILE: 02 - Dopest Duo.flac
Size: 24575306 Hash: 25342292F32EC7ADC33E5266C652BD88 Accuracy: -m0
Conclusion: CDDA 100%
Signature: E74D223A66A7D9854D6BB4BCE49F1583F48852C8
FILE: 01 - Love Thang.flac
Size: 25614302 Hash: 1C3B33FE47C4422A66DC44CBB820498B Accuracy: -m0
Conclusion: CDDA 100%
Signature: 5B5CE0D428DA95AFD262E66E328EAFFA533F06D3



Поглощение/вытеснение
Только с согласия релизера

kudzin
Детали торрента:
Название:Craig G - The Kingpin (1989) [FLAC|Lossless|tracks + .cue] <Hip-Hop>
Дата добавления:15 Июн 2017 21:40:52
Размер:265 MB
Раздают:
Качают:0
Форум:Архив Музыки

All rights reserved © 2015-2019