TORRENTS45.XYZ

Скачать Живое / Life (2017) WEB-DL [H.264/1080p-LQ]


Живое / Life (2017) WEB-DL [H.264/1080p-LQ]
Производство: США, Columbia Pictures, Skydance Productions, Sony Pictures Entertainment (SPE)
Жанр: Ужасы, Фантастика, Триллер

Режиссер: Даниэль Эспиноса
Продюсер: Бонни Кертис, Дэвид Эллисон, Дэна Голдберг
Актеры: Ребекка Фергюсон, Джейк Джилленхол, Райан Рейнольдс, Хироюки Санада, Ольга Дыховичная, Эрион Бакаре, Александр Нгуйен, Хиу Вун-Син

Описание:
Группа исследователей с международного космического корабля обнаруживает жизнь на Марсе. Они еще не подозревают, какие события повлечет за собой их открытие.


Возраст: 18+ (зрителям, достигшим 18 лет. запрещено для детей)
Рейтинг MPAA: R (лицам до 17 лет обязательно присутствие взрослого)
Дата мировой премьеры: 23 марта 2017
Дата российской премьеры: 23 марта 2017, «WDSSPR»

Продолжительность: 01:43:58
Качество видео: WEB-DL
Перевод: Дублированный (iTunes)
Субтитры: Русский (Full, Forced), Украинский (Full), Английский (Full, Forced)

Видео: AVC/H.264, 1920x798 (2.40:1), 4562 kbps, 23.976 fps
Аудио »1: 48 kHz, AC3, 6 ch, ~384 kbps (Русский)
Аудио »2: 44.1 kHz, AAC, 2 ch, ~126 kbps (Украинский)
Аудио »3: 48 kHz, AC3, 6 ch, ~384 kbps (Английский)

MediaInfo:

Общее
Уникальный идентификатор : 218128834547184151327012962700223149002 (0xA41A15DE02D9CFB583544766E73D73CA)
Полное имя : D:\Живое.2017.WEB-DL.[1080p].torrents45.xyzv
Формат : Matroska
Версия формата : Version 4 / Version 2
Размер файла : 3,96 Гбайт
Продолжительность : 1 ч. 43 м.
Общий поток : 5459 Кбит/сек
Дата кодирования : UTC 2017-06-05 18:58:17
Программа кодирования : mkvmerge v6.9.1 ('Blue Panther') 32bit built on Apr 18 2014 18:15:44
Библиотека кодирования : libebml v1.3.0 + libmatroska v1.4.1

Видео
Идентификатор : 1
Формат : AVC
Формат/Информация : Advanced Video Codec
Профиль формата : High@L4
Параметр CABAC формата : Да
Параметр ReFrames формата : 5 кадров
Идентификатор кодека : V_MPEG4/ISO/AVC
Продолжительность : 1 ч. 43 м.
Ширина : 1920 пикселей
Высота : 798 пикселей
Соотношение сторон : 2,40:1
Режим частоты кадров : Постоянный
Частота кадров : 23,976 кадра/сек
Цветовое пространство : YUV
Субдискретизация насыщенности : 4:2:0
Битовая глубина : 8 бит
Тип развёртки : Прогрессивная
Язык : English
Default : Да
Forced : Нет
Цветовой диапазон : Limited
Основные цвета : BT.709
Характеристики трансфера : BT.709
Коэффициенты матрицы : BT.709

Аудио #1
Идентификатор : 2
Формат : AC-3
Формат/Информация : Audio Coding 3
Расширение режима : CM (complete main)
Параметр Endianness формата : Big
Идентификатор кодека : A_AC3
Продолжительность : 1 ч. 43 м.
Вид битрейта : Постоянный
Битрейт : 384 Кбит/сек
Каналы : 6 каналов
Расположение каналов : Front: L C R, Side: L R, LFE
Частота : 48,0 КГц
Частота кадров : 31,250 кадров/сек (1536 spf)
Метод сжатия : С потерями
Размер потока : 286 Мбайт (7%)
Заголовок : [DUB] DD 5.1 @ 384 kbps (iTunes)
Язык : Russian
Default : Нет
Forced : Нет

Аудио #2
Идентификатор : 3
Формат : AAC
Формат/Информация : Advanced Audio Codec
Профиль формата : LC
Идентификатор кодека : A_AAC
Продолжительность : 1 ч. 43 м.
Каналы : 2 канала
Расположение каналов : Front: L R
Частота : 44,1 КГц
Частота кадров : 43,066 кадра/сек (1024 spf)
Метод сжатия : С потерями
Заголовок : [DUB] AAC 2.0 @ 160 kbps
Язык : Ukrainian
Default : Нет
Forced : Нет

Аудио #3
Идентификатор : 4
Формат : AC-3
Формат/Информация : Audio Coding 3
Расширение режима : CM (complete main)
Параметр Endianness формата : Big
Идентификатор кодека : A_AC3
Продолжительность : 1 ч. 43 м.
Вид битрейта : Постоянный
Битрейт : 384 Кбит/сек
Каналы : 6 каналов
Расположение каналов : Front: L C R, Side: L R, LFE
Частота : 48,0 КГц
Частота кадров : 31,250 кадров/сек (1536 spf)
Метод сжатия : С потерями
Размер потока : 286 Мбайт (7%)
Заголовок : [ORIGINAL] DD 5.1 @ 384 kbps (iTunes)
Язык : English
Default : Нет
Forced : Нет

Текст #1
Идентификатор : 5
Формат : UTF-8
Идентификатор кодека : S_TEXT/UTF8
Идентификатор кодека/Информация : UTF-8 Plain Text
Заголовок : Full-lenth
Язык : English
Default : Нет
Forced : Нет

Текст #2
Идентификатор : 6
Формат : UTF-8
Идентификатор кодека : S_TEXT/UTF8
Идентификатор кодека/Информация : UTF-8 Plain Text
Заголовок : Full-lenth
Язык : English
Default : Нет
Forced : Нет

Текст #3
Идентификатор : 7
Формат : UTF-8
Идентификатор кодека : S_TEXT/UTF8
Идентификатор кодека/Информация : UTF-8 Plain Text
Заголовок : Forced
Язык : English
Default : Нет
Forced : Нет

Текст #4
Идентификатор : 8
Формат : UTF-8
Идентификатор кодека : S_TEXT/UTF8
Идентификатор кодека/Информация : UTF-8 Plain Text
Заголовок : Full-lenth
Язык : Russian
Default : Нет
Forced : Нет

Текст #5
Идентификатор : 9
Формат : UTF-8
Идентификатор кодека : S_TEXT/UTF8
Идентификатор кодека/Информация : UTF-8 Plain Text
Заголовок : Full-lenth
Язык : Ukrainian
Default : Нет
Forced : Нет

Текст #6
Идентификатор : 10
Формат : UTF-8
Идентификатор кодека : S_TEXT/UTF8
Идентификатор кодека/Информация : UTF-8 Plain Text
Заголовок : Forced
Язык : Russian
Default : Да
Forced : Да

avdump:

File: D:\Живое.2017.WEB-DL.[1080p].torrents45.xyzv
Duration: 01:43:58 (6238.11)
lang: Unknown (1)
codc: V_MPEG4/ISO/AVC -> H264/AVC (22)
reso: 1920x798 -> Unknown (aka not common)
fram: 23.976 fps
rate: 4562 kbps (4561.64)
dura: 01:43:58 (6237.99)
size: 3.31 GB (3556929395)
Track #2: audio ([DUB] DD 5.1 @ 384 kbps (iTunes))
lang: rus -> Russian (15)
codc: A_AC3 -> AC3 (2)
chan: 6 -> 5.1 Surround
samp: 48000 Hz
rate: 384 kbps (384.05)
dura: 01:43:58 (6237.86)
size: 285.58 MB (299454944)
Track #3: audio ([DUB] AAC 2.0 @ 160 kbps)
lang: ukr -> Unknown (1)
codc: A_AAC -> AAC (9)
chan: 2 -> Stereo
samp: 44100 Hz
rate: 126 kbps (126.09)
dura: 01:43:58 (6237.88)
size: 93.76 MB (98314988)
Track #4: audio ([ORIGINAL] DD 5.1 @ 384 kbps (iTunes))
lang: Unknown (1)
codc: A_AC3 -> AC3 (2)
chan: 6 -> 5.1 Surround
samp: 48000 Hz
rate: 384 kbps (384.05)
dura: 01:43:58 (6237.86)
size: 285.58 MB (299453412)
Track #5: subtitles (Full-lenth)
lang: Unknown (1)
type: S_TEXT/UTF8 -> SRT (3)
size: 30.89 KB (31633)
Track #6: subtitles (Full-lenth)
lang: Unknown (1)
type: S_TEXT/UTF8 -> SRT (3)
size: 30.94 KB (31681)
Track #7: subtitles (Forced)
lang: Unknown (1)
type: S_TEXT/UTF8 -> SRT (3)
size: 282.00 B (282)
Track #8: subtitles (Full-lenth)
lang: rus -> Russian (15)
type: S_TEXT/UTF8 -> SRT (3)
size: 54.46 KB (55771)
Track #9: subtitles (Full-lenth)
lang: ukr -> Unknown (1)
type: S_TEXT/UTF8 -> SRT (3)
size: 51.30 KB (52529)
Track #10: subtitles (Forced)
lang: rus -> Russian (15)
type: S_TEXT/UTF8 -> SRT (3)
size: 1.50 KB (1535)
Sizes: (check sanity)
disk: 3.96 GB (4256347109)
trac: 3.96 GB (4254326170) [based on track size]
bitr: 3.96 GB (4254166421) [based on bitrate]
tdif: 1.93 MB (2020939) 0.04%
bdif: 2.08 MB (2180687) 0.05%
Скриншоты:


Все одноименные релизы в Клубе

Смотреть Online

http://moonwalk.cc/video/6262d63d70cdc9f8/iframe
Детали торрента:
Название:Живое / Life (2017) WEB-DL [H.264/1080p-LQ]
Дата добавления:05 Июн 2017 23:50:56
Размер:3,96 GB
Раздают:77
Качают:3
Форум:Зарубежные Фильмы (HD*Rip/LQ, DVDRip, SATRip, VHSRip)

All rights reserved © 2015-2018