TORRENTS45.XYZ

Скачать Vocalohistory (2017) [FLAC|Lossless|image+.cue] <J-Pop, Vocaloid>


Vocalohistory (2017)
Год: 2017
Тип издания: Commercial, Vocaloid
Жанр: J-Pop
Теги: Vocal
Производство: Exit Tunes
Исполнители: V.A., Miku Hatsune
Продолжительность: 03:52:19
Страна: Japan
Catalog №: QWCE-00627
Ссылка на сайт автора

Кодек: FLAC
Обложка: Yes
Битрейт: Lossless|CDDA

Треклист:
CD #1
01. 恋スルVOC@LOID (4:55)
02. celluloid (4:01)
03. えれくとりっく.えんじぇぅ (3:18)
04. 桜の季節 (4:35)
05. サイハテ (2:45)
06. StargazeR -Vocalolegend New-Arrange ver.- (3:26)
07. 桜ノ雨 (6:35)
08. もっと 伸びろ ぼくの 動画 (5:31)
09. 夕日坂 (6:14)
10. Hatsune Mikuの消失 (4:49)
11. トルコ行進曲 - オワタ\(^o^)/ (3:05)
12. VOiCE (4:29)
13. ぽっぴっぽー (2:59)
14. 1/6 -genesis mix- (4:21)
15. Happy fruit! (4:00)

Продолжение треклиста

CD #2
01. SPiCa (3:38)
02. いつもより泣き虫な空 (4:05)
03. T-POCKET) Feat. Hatsune Miku / 1925 (3:20)
04. リア充爆発しろ! (1:35)
05. ローリンガール (3:13)
06. え?あぁ、そう。 (3:17)
07. Hatsune Mikuの暴走 -Full ver.- (4:49)
08. 桜前線異常ナシ (3:20)
09. 家に帰ると妻が必ず死んだふりをしています。 (2:47)
10. トリノコシティ (3:26)
11. 心拍数#0822 (5:20)
12. 深海少女 (3:28)
13. 般若心経ポップ (2:44)
14. タイムマシン (4:10)
15. ネトゲ廃人シュプレヒコール (4:54)

CD #3
01. またあした (5:34)
02. 秘密警察 (3:31)
03. 行きます! カラオケ一曲目 (3:01)
04. BadBye (3:00)
05. 骸骨楽団とリリア (3:22)
06. FREELY TOMORROW (4:00)
07. 千本桜 (4:06)
08. 未来線 (3:29)
09. エンヴィキャットウォーク (3:46)
10. paranoia (3:50)
11. Black Board (3:42)
12. 風待ちハローワールド (4:30)
13. こちら、幸福安心委員会です。 (4:34)
14. bitter (4:49)
15. 永遠に幸せになる方法、見つけました。 (5:12)

CD #4
01. サリシノハラ (4:32)
02. 純情スカート (4:09)
03. 東京レトロ (3:55)
04. 終点 (4:08)
05. 妄想税 (3:36)
06. タイム真心 (3:54)
07. ウミユリ海底譚 (3:57)
08. すろぉもぉしょん (5:10)
09. 恋愛裁判 (3:43)
10. ツギハギスタッカート (4:08)
11. メリュー (3:33)
12. エキシビション空中戦 (3:09)
13. いままでも、このときも、これからも―― (4:51)

EAC log

Код: выделить все
Exact Audio Copy V1.1 from 23. June 2015

EAC 抓取日志文件从21. 三月 2017, 13:01

Various Artists / EXIT TUNES PRESENTS Vocalohistory Feat. 初音ミク [Disc 1]

使用驱动器  :PIONEER DVD-RW DVR-XU01   Adapter: 1  ID: 0

读取模式      : 可靠Secure
使用精确流     : 是
清空音频缓存    : 否
使用 C2 指示器 : 否

读取偏移校正:               : 6
读取 Lead-In 和 Lead-Out : 否
用静音填充抓取中丢失偏移的采样       : 是
去除首尾静音块               : 否
 在CRC 计算中使用了空样本       : 是
已用接口                  : Win NT 及 2000 本地 Win32 接口

所用输出模式: : 内部 WAV 函数
样本格式    : 44.100 Hz; 16 Bit; 立体声

已抓取 CD 的 TOC

     音轨 |    起始    |    长度    |  起始扇区  |  结束扇区
    --------------------------------------------
      1 |  0:00.00 |  4:55.06 |      0 |  22130
      2 |  4:55.06 |  4:00.43 |  22131 |  40173
      3 |  8:55.49 |  3:18.11 |  40174 |  55034
      4 | 12:13.60 |  4:35.30 |  55035 |  75689
      5 | 16:49.15 |  2:44.45 |  75690 |  88034
      6 | 19:33.60 |  3:26.16 |  88035 | 103500
      7 | 23:00.01 |  6:34.54 | 103501 | 133104
      8 | 29:34.55 |  5:31.25 | 133105 | 157954
      9 | 35:06.05 |  6:13.71 | 157955 | 186000
     10 | 41:20.01 |  4:49.31 | 186001 | 207706
     11 | 46:09.32 |  3:04.48 | 207707 | 221554
     12 | 49:14.05 |  4:28.70 | 221555 | 241724
     13 | 53:43.00 |  2:58.73 | 241725 | 255147
     14 | 56:41.73 |  4:21.27 | 255148 | 274749
     15 | 61:03.25 |  4:00.32 | 274750 | 292781

范围状态及错误

已选择范围

     文件名 F:\新建文件夹\Various Artists - EXIT TUNES PRESENTS Vocalohistory Feat. 初音ミク [Disc 1].wav

     峰值电平 99.0 %
     抓取速度 7.7 X
     范围质量 100.0 %
     复制 CRC 3FFCC849
     复制成功

没有错误发生

AccurateRip 摘要

音轨  1  在数据库中不存在
音轨  2  在数据库中不存在
音轨  3  在数据库中不存在
音轨  4  在数据库中不存在
音轨  5  在数据库中不存在
音轨  6  在数据库中不存在
音轨  7  在数据库中不存在
音轨  8  在数据库中不存在
音轨  9  在数据库中不存在
音轨 10  在数据库中不存在
音轨 11  在数据库中不存在
音轨 12  在数据库中不存在
音轨 13  在数据库中不存在
音轨 14  在数据库中不存在
音轨 15  在数据库中不存在

没有任何音轨在 AccurateRip 数据库中有记录

状态报告结尾

---- CUETools DB Plugin V2.1.6

[CTDB TOCID: .33OaT0FZJxv0nl8vu9RdiEURX0-] database access error: 无法解析此远程名称: 'db.cuetools.net'


Код: выделить все
Exact Audio Copy V1.1 from 23. June 2015

EAC 抓取日志文件从21. 三月 2017, 13:22

Various Artists / EXIT TUNES PRESENTS Vocalohistory Feat. 初音ミク [Disc 2]

使用驱动器  :PIONEER DVD-RW DVR-XU01   Adapter: 1  ID: 0

读取模式      : 可靠Secure
使用精确流     : 是
清空音频缓存    : 否
使用 C2 指示器 : 否

读取偏移校正:               : 6
读取 Lead-In 和 Lead-Out : 否
用静音填充抓取中丢失偏移的采样       : 是
去除首尾静音块               : 否
 在CRC 计算中使用了空样本       : 是
已用接口                  : Win NT 及 2000 本地 Win32 接口

所用输出模式: : 内部 WAV 函数
样本格式    : 44.100 Hz; 16 Bit; 立体声

已抓取 CD 的 TOC

     音轨 |    起始    |    长度    |  起始扇区  |  结束扇区
    --------------------------------------------
      1 |  0:00.00 |  3:37.44 |      0 |  16318
      2 |  3:37.44 |  4:04.52 |  16319 |  34670
      3 |  7:42.21 |  3:19.63 |  34671 |  49658
      4 | 11:02.09 |  1:34.44 |  49659 |  56752
      5 | 12:36.53 |  3:13.27 |  56753 |  71254
      6 | 15:50.05 |  3:17.17 |  71255 |  86046
      7 | 19:07.22 |  4:48.42 |  86047 | 107688
      8 | 23:55.64 |  3:19.65 | 107689 | 122678
      9 | 27:15.54 |  2:46.42 | 122679 | 135170
     10 | 30:02.21 |  3:25.42 | 135171 | 150587
     11 | 33:27.63 |  5:19.59 | 150588 | 174571
     12 | 38:47.47 |  3:28.18 | 174572 | 190189
     13 | 42:15.65 |  2:44.31 | 190190 | 202520
     14 | 45:00.21 |  4:10.06 | 202521 | 221276
     15 | 49:10.27 |  4:53.46 | 221277 | 243297

范围状态及错误

已选择范围

     文件名 F:\新建文件夹\Various Artists - EXIT TUNES PRESENTS Vocalohistory Feat. 初音ミク [Disc 2].wav

     峰值电平 99.1 %
     抓取速度 7.3 X
     范围质量 99.9 %
     复制 CRC 5BBC4A06
     复制成功

没有错误发生

AccurateRip 摘要

音轨  1  在数据库中不存在
音轨  2  在数据库中不存在
音轨  3  在数据库中不存在
音轨  4  在数据库中不存在
音轨  5  在数据库中不存在
音轨  6  在数据库中不存在
音轨  7  在数据库中不存在
音轨  8  在数据库中不存在
音轨  9  在数据库中不存在
音轨 10  在数据库中不存在
音轨 11  在数据库中不存在
音轨 12  在数据库中不存在
音轨 13  在数据库中不存在
音轨 14  在数据库中不存在
音轨 15  在数据库中不存在

没有任何音轨在 AccurateRip 数据库中有记录

状态报告结尾

---- CUETools DB Plugin V2.1.6

[CTDB TOCID: J6LXzdVEMlq66ScuD6tC6jTYv4M-] found
Submit result: J6LXzdVEMlq66ScuD6tC6jTYv4M- has been confirmed
Track | CTDB Status
  1   | (18/18) Accurately ripped
  2   | (18/18) Accurately ripped
  3   | (18/18) Accurately ripped
  4   | (18/18) Accurately ripped
  5   | (18/18) Accurately ripped
  6   | (18/18) Accurately ripped
  7   | (18/18) Accurately ripped
  8   | (18/18) Accurately ripped
  9   | (18/18) Accurately ripped
 10   | (18/18) Accurately ripped
 11   | (18/18) Accurately ripped
 12   | (18/18) Accurately ripped
 13   | (18/18) Accurately ripped
 14   | (18/18) Accurately ripped
 15   | (18/18) Accurately ripped


Код: выделить все
Exact Audio Copy V1.1 from 23. June 2015

EAC 抓取日志文件从21. 三月 2017, 13:13

Various Artists / EXIT TUNES PRESENTS Vocalohistory Feat. 初音ミク [Disc 3]

使用驱动器  :PIONEER DVD-RW DVR-XU01   Adapter: 1  ID: 0

读取模式      : 可靠Secure
使用精确流     : 是
清空音频缓存    : 否
使用 C2 指示器 : 否

读取偏移校正:               : 6
读取 Lead-In 和 Lead-Out : 否
用静音填充抓取中丢失偏移的采样       : 是
去除首尾静音块               : 否
 在CRC 计算中使用了空样本       : 是
已用接口                  : Win NT 及 2000 本地 Win32 接口

所用输出模式: : 内部 WAV 函数
样本格式    : 44.100 Hz; 16 Bit; 立体声

已抓取 CD 的 TOC

     音轨 |    起始    |    长度    |  起始扇区  |  结束扇区
    --------------------------------------------
      1 |  0:00.00 |  5:34.23 |      0 |  25072
      2 |  5:34.23 |  3:31.05 |  25073 |  40902
      3 |  9:05.28 |  3:01.18 |  40903 |  54495
      4 | 12:06.46 |  2:59.38 |  54496 |  67958
      5 | 15:06.09 |  3:21.50 |  67959 |  83083
      6 | 18:27.59 |  4:00.33 |  83084 | 101116
      7 | 22:28.17 |  4:06.02 | 101117 | 119568
      8 | 26:34.19 |  3:28.46 | 119569 | 135214
      9 | 30:02.65 |  3:45.46 | 135215 | 152135
     10 | 33:48.36 |  3:49.49 | 152136 | 169359
     11 | 37:38.10 |  3:41.74 | 169360 | 186008
     12 | 41:20.09 |  4:30.25 | 186009 | 206283
     13 | 45:50.34 |  4:33.66 | 206284 | 226824
     14 | 50:24.25 |  4:49.17 | 226825 | 248516
     15 | 55:13.42 |  5:11.52 | 248517 | 271893

范围状态及错误

已选择范围

     文件名 F:\新建文件夹\Various Artists - EXIT TUNES PRESENTS Vocalohistory Feat. 初音ミク [Disc 3].wav

     峰值电平 100.0 %
     抓取速度 7.5 X
     范围质量 100.0 %
     复制 CRC 4C80DC15
     复制成功

没有错误发生

AccurateRip 摘要

音轨  1  在数据库中不存在
音轨  2  在数据库中不存在
音轨  3  在数据库中不存在
音轨  4  在数据库中不存在
音轨  5  在数据库中不存在
音轨  6  在数据库中不存在
音轨  7  在数据库中不存在
音轨  8  在数据库中不存在
音轨  9  在数据库中不存在
音轨 10  在数据库中不存在
音轨 11  在数据库中不存在
音轨 12  在数据库中不存在
音轨 13  在数据库中不存在
音轨 14  在数据库中不存在
音轨 15  在数据库中不存在

没有任何音轨在 AccurateRip 数据库中有记录

状态报告结尾

---- CUETools DB Plugin V2.1.6

[CTDB TOCID: gSPnQt55Myg_suV1liqRVbZnytI-] found
Submit result: gSPnQt55Myg_suV1liqRVbZnytI- has been confirmed
Track | CTDB Status
  1   | (17/17) Accurately ripped
  2   | (17/17) Accurately ripped
  3   | (17/17) Accurately ripped
  4   | (17/17) Accurately ripped
  5   | (17/17) Accurately ripped
  6   | (17/17) Accurately ripped
  7   | (17/17) Accurately ripped
  8   | (17/17) Accurately ripped
  9   | (17/17) Accurately ripped
 10   | (17/17) Accurately ripped
 11   | (17/17) Accurately ripped
 12   | (17/17) Accurately ripped
 13   | (17/17) Accurately ripped
 14   | (17/17) Accurately ripped
 15   | (17/17) Accurately ripped


Код: выделить все
Exact Audio Copy V1.1 from 23. June 2015

EAC 抓取日志文件从21. 三月 2017, 13:32

Various Artists / EXIT TUNES PRESENTS Vocalohistory Feat. 初音ミク [Disc 4]

使用驱动器  :PIONEER DVD-RW DVR-XU01   Adapter: 1  ID: 0

读取模式      : 可靠Secure
使用精确流     : 是
清空音频缓存    : 否
使用 C2 指示器 : 否

读取偏移校正:               : 6
读取 Lead-In 和 Lead-Out : 否
用静音填充抓取中丢失偏移的采样       : 是
去除首尾静音块               : 否
 在CRC 计算中使用了空样本       : 是
已用接口                  : Win NT 及 2000 本地 Win32 接口

所用输出模式: : 内部 WAV 函数
样本格式    : 44.100 Hz; 16 Bit; 立体声

已抓取 CD 的 TOC

     音轨 |    起始    |    长度    |  起始扇区  |  结束扇区
    --------------------------------------------
      1 |  0:00.00 |  4:32.03 |      0 |  20402
      2 |  4:32.03 |  4:08.57 |  20403 |  39059
      3 |  8:40.60 |  3:55.10 |  39060 |  56694
      4 | 12:35.70 |  4:08.06 |  56695 |  75300
      5 | 16:44.01 |  3:35.53 |  75301 |  91478
      6 | 20:19.54 |  3:54.26 |  91479 | 109054
      7 | 24:14.05 |  3:57.30 | 109055 | 126859
      8 | 28:11.35 |  5:10.17 | 126860 | 150126
      9 | 33:21.52 |  3:42.60 | 150127 | 166836
     10 | 37:04.37 |  4:07.38 | 166837 | 185399
     11 | 41:12.00 |  3:33.20 | 185400 | 201394
     12 | 44:45.20 |  3:09.36 | 201395 | 215605
     13 | 47:54.56 |  4:51.03 | 215606 | 237433

范围状态及错误

已选择范围

     文件名 F:\新建文件夹\Various Artists - EXIT TUNES PRESENTS Vocalohistory Feat. 初音ミク [Disc 4].wav

     峰值电平 99.6 %
     抓取速度 7.2 X
     范围质量 100.0 %
     复制 CRC 8C03AB20
     复制成功

没有错误发生

AccurateRip 摘要

音轨  1  在数据库中不存在
音轨  2  在数据库中不存在
音轨  3  在数据库中不存在
音轨  4  在数据库中不存在
音轨  5  在数据库中不存在
音轨  6  在数据库中不存在
音轨  7  在数据库中不存在
音轨  8  在数据库中不存在
音轨  9  在数据库中不存在
音轨 10  在数据库中不存在
音轨 11  在数据库中不存在
音轨 12  在数据库中不存在
音轨 13  在数据库中不存在

没有任何音轨在 AccurateRip 数据库中有记录

状态报告结尾

---- CUETools DB Plugin V2.1.6

[CTDB TOCID: AU7.0NVt_VxkIKu0YMJeDMST4lY-] found
Submit result: AU7.0NVt_VxkIKu0YMJeDMST4lY- has been confirmed
Track | CTDB Status
  1   | (17/17) Accurately ripped
  2   | (17/17) Accurately ripped
  3   | (17/17) Accurately ripped
  4   | (17/17) Accurately ripped
  5   | (17/17) Accurately ripped
  6   | (17/17) Accurately ripped
  7   | (17/17) Accurately ripped
  8   | (17/17) Accurately ripped
  9   | (17/17) Accurately ripped
 10   | (17/17) Accurately ripped
 11   | (17/17) Accurately ripped
 12   | (17/17) Accurately ripped
 13   | (17/17) Accurately ripped

auCDtect log

Код: выделить все
-----------------------

DON'T MODIFY THIS FILE

-----------------------

PERFORMER: auCDtect Task Manager, ver. 1.6.0 RC1 build 1.6.0.1
Copyright (c) 2008-2010 y-soft. All rights reserved
http://y-soft.org

ANALYZER: auCDtect: CD records authenticity detector, version 0.8.2
Copyright (c) 2004 Oleg Berngardt. All rights reserved.
Copyright (c) 2004 Alexander Djourik. All rights reserved.

FILE: Vocalohistory [Disc 4].flac
  Size: 415687201 Hash: 6ED493C2DA2BDAB1E6E4737BF484C2EF Accuracy: -m0
  Conclusion: CDDA 100%
  Signature: F693AEA447A0E619271A8FFB06CFF4759118B70B
FILE: Vocalohistory [Disc 3].flac
  Size: 470379219 Hash: 831D8A0FA29CC20114427CE69F8A752D Accuracy: -m0
  Conclusion: CDDA 100%
  Signature: D7AEF65F07247FDDA12F7DDB346EA56FE66F109A
FILE: Vocalohistory [Disc 2].flac
  Size: 401297536 Hash: 0B523BD87DB23CD4D8721B711E8D20A0 Accuracy: -m0
  Conclusion: CDDA 100%
  Signature: 5E071FBDBC82FC881D03E8F3FA04E43C323EFBFD
FILE: Vocalohistory [Disc 1].flac
  Size: 500822563 Hash: A73DF3FF5BC1421A56D6E45FF961015E Accuracy: -m0
  Conclusion: CDDA 100%
  Signature: CAAEC2EF72810A9C8F62674BE01F0122CBE3E481

Содержание индексной карты

Код: выделить все
REM GENRE "Japanese Pop"
REM DATE 2017
REM DISCID D20F3F0F
REM COMMENT "ExactAudioCopy v1.1"
PERFORMER "Various Artists"
TITLE "EXIT TUNES PRESENTS Vocalohistory feat. Hatsune Miku [Disc 1]"
FILE "Vocalohistory [Disc 1].flac" WAVE
  TRACK 01 AUDIO
    TITLE "恋スルVOC@LOID"
    PERFORMER "OSTER project Feat. Hatsune Miku"
    INDEX 01 00:00:00
  TRACK 02 AUDIO
    TITLE "celluloid"
    PERFORMER "baker Feat. Hatsune Miku"
    INDEX 00 04:52:69
    INDEX 01 04:55:06
  TRACK 03 AUDIO
    TITLE "えれくとりっく.えんじぇぅ"
    PERFORMER "ヤスオP Feat. Hatsune Miku"
    INDEX 00 08:53:00
    INDEX 01 08:55:49
  TRACK 04 AUDIO
    TITLE "桜の季節"
    PERFORMER "ゆうゆ Feat. Hatsune Miku"
    INDEX 00 12:11:49
    INDEX 01 12:13:60
  TRACK 05 AUDIO
    TITLE "サイハテ"
    PERFORMER "小林オニキス Feat. Hatsune Miku"
    INDEX 00 16:47:03
    INDEX 01 16:49:15
  TRACK 06 AUDIO
    TITLE "StargazeR -Vocalolegend New-Arrange ver.-"
    PERFORMER "骨盤P Feat. Hatsune Miku"
    INDEX 00 19:31:48
    INDEX 01 19:33:60
  TRACK 07 AUDIO
    TITLE "桜ノ雨"
    PERFORMER "halyosy Feat. Hatsune Miku"
    INDEX 00 22:57:65
    INDEX 01 23:00:01
  TRACK 08 AUDIO
    TITLE "もっと 伸びろ ぼくの 動画"
    PERFORMER "卑屈P Feat. Hatsune Miku"
    INDEX 00 29:32:06
    INDEX 01 29:34:55
  TRACK 09 AUDIO
    TITLE "夕日坂"
    PERFORMER "doriko Feat. Hatsune Miku"
    INDEX 00 35:03:69
    INDEX 01 35:06:05
  TRACK 10 AUDIO
    TITLE "Hatsune Mikuの消失"
    PERFORMER "cosMo@暴走P Feat. Hatsune Miku"
    INDEX 00 41:17:65
    INDEX 01 41:20:01
  TRACK 11 AUDIO
    TITLE "トルコ行進曲 - オワタ\(^o^)/"
    PERFORMER "ヴォルフガング.アマデウス.モーツァルト Feat. Hatsune Miku"
    INDEX 00 46:07:20
    INDEX 01 46:09:32
  TRACK 12 AUDIO
    TITLE "VOiCE"
    PERFORMER "ラヴリーP Feat. Hatsune Miku"
    INDEX 00 49:11:68
    INDEX 01 49:14:05
  TRACK 13 AUDIO
    TITLE "ぽっぴっぽー"
    PERFORMER "ラマーズP Feat. Hatsune Miku"
    INDEX 00 53:40:64
    INDEX 01 53:43:00
  TRACK 14 AUDIO
    TITLE "1/6 -genesis mix-"
    PERFORMER "ぼーかりおどP Feat. Hatsune Miku"
    INDEX 00 56:39:62
    INDEX 01 56:41:73
  TRACK 15 AUDIO
    TITLE "Happy fruit!"
    PERFORMER "azuma Feat. Hatsune Miku"
    INDEX 00 61:01:14
    INDEX 01 61:03:25

Код: выделить все
REM GENRE "Japanese Pop"
REM DATE 2017
REM DISCID D50CAB0F
REM COMMENT "ExactAudioCopy v1.1"
PERFORMER "Various Artists"
TITLE "EXIT TUNES PRESENTS Vocalohistory Feat. Hatsune Miku [Disc 2]"
FILE "Vocalohistory [Disc 2].flac" WAVE
  TRACK 01 AUDIO
    TITLE "SPiCa"
    PERFORMER "とくP Feat. Hatsune Miku"
    INDEX 01 00:00:00
  TRACK 02 AUDIO
    TITLE "いつもより泣き虫な空"
    PERFORMER "れるりり Feat. Hatsune Miku"
    INDEX 00 03:35:33
    INDEX 01 03:37:44
  TRACK 03 AUDIO
    TITLE "T-POCKET) Feat. Hatsune Miku / 1925"
    PERFORMER "冨田悠斗 (とみー"
    INDEX 01 07:42:21
  TRACK 04 AUDIO
    TITLE "リア充爆発しろ!"
    PERFORMER "KAZU-k Feat. Hatsune Miku"
    INDEX 00 10:59:73
    INDEX 01 11:02:09
  TRACK 05 AUDIO
    TITLE "ローリンガール"
    PERFORMER "wowaka Feat. Hatsune Miku"
    INDEX 00 12:34:41
    INDEX 01 12:36:53
  TRACK 06 AUDIO
    TITLE "え?あぁ、そう。"
    PERFORMER "papiyon Feat. Hatsune Miku"
    INDEX 00 15:47:69
    INDEX 01 15:50:05
  TRACK 07 AUDIO
    TITLE "Hatsune Mikuの暴走 -Full ver.-"
    PERFORMER "cosMo@暴走P Feat. Hatsune Miku"
    INDEX 00 19:05:11
    INDEX 01 19:07:22
  TRACK 08 AUDIO
    TITLE "桜前線異常ナシ"
    PERFORMER "ワタルP Feat. Hatsune Miku"
    INDEX 00 23:53:53
    INDEX 01 23:55:64
  TRACK 09 AUDIO
    TITLE "家に帰ると妻が必ず死んだふりをしています。"
    PERFORMER "ほぼ日P Feat. Hatsune Miku"
    INDEX 00 27:13:43
    INDEX 01 27:15:54
  TRACK 10 AUDIO
    TITLE "トリノコシティ"
    PERFORMER "40mP Feat. Hatsune Miku"
    INDEX 00 30:00:09
    INDEX 01 30:02:21
  TRACK 11 AUDIO
    TITLE "心拍数#0822"
    PERFORMER "papiyon Feat. Hatsune Miku Append (Dark)"
    INDEX 00 33:25:51
    INDEX 01 33:27:63
  TRACK 12 AUDIO
    TITLE "深海少女"
    PERFORMER "ゆうゆ Feat. Hatsune Miku"
    INDEX 00 38:45:35
    INDEX 01 38:47:47
  TRACK 13 AUDIO
    TITLE "般若心経ポップ"
    PERFORMER "おにゅうP Feat. Hatsune Miku"
    INDEX 00 42:13:54
    INDEX 01 42:15:65
  TRACK 14 AUDIO
    TITLE "タイムマシン"
    PERFORMER "40mP Feat. Hatsune Miku"
    INDEX 00 44:58:09
    INDEX 01 45:00:21
  TRACK 15 AUDIO
    TITLE "ネトゲ廃人シュプレヒコール"
    PERFORMER "さつき が てんこもり Feat. Hatsune Miku"
    INDEX 00 49:08:15
    INDEX 01 49:10:27

Код: выделить все
REM GENRE "Japanese Pop"
REM DATE 2017
REM DISCID BC0E290F
REM COMMENT "ExactAudioCopy v1.1"
PERFORMER "Various Artists"
TITLE "EXIT TUNES PRESENTS Vocalohistory Feat. Hatsune Miku [Disc 3]"
FILE "Vocalohistory [Disc 3].flac" WAVE
  TRACK 01 AUDIO
    TITLE "またあした"
    PERFORMER "ふわりP Feat. Hatsune Miku"
    INDEX 01 00:00:00
  TRACK 02 AUDIO
    TITLE "秘密警察"
    PERFORMER "ぶりる Feat. Hatsune Miku"
    INDEX 00 05:32:11
    INDEX 01 05:34:23
  TRACK 03 AUDIO
    TITLE "行きます! カラオケ一曲目"
    PERFORMER "ほぼ日P Feat. Hatsune Miku"
    INDEX 00 09:03:16
    INDEX 01 09:05:28
  TRACK 04 AUDIO
    TITLE "BadBye"
    PERFORMER "koma'n Feat. Hatsune Miku"
    INDEX 00 12:04:35
    INDEX 01 12:06:46
  TRACK 05 AUDIO
    TITLE "骸骨楽団とリリア"
    PERFORMER "トーマ Feat. Hatsune Miku"
    INDEX 00 15:03:73
    INDEX 01 15:06:09
  TRACK 06 AUDIO
    TITLE "FREELY TOMORROW"
    PERFORMER "Mitchie M Feat. Hatsune Miku"
    INDEX 00 18:25:48
    INDEX 01 18:27:59
  TRACK 07 AUDIO
    TITLE "千本桜"
    PERFORMER "黒うさP Feat. Hatsune Miku"
    INDEX 00 22:26:06
    INDEX 01 22:28:17
  TRACK 08 AUDIO
    TITLE "未来線"
    PERFORMER "1640mP Feat. Hatsune Miku"
    INDEX 00 26:32:07
    INDEX 01 26:34:19
  TRACK 09 AUDIO
    TITLE "エンヴィキャットウォーク"
    PERFORMER "トーマ Feat. Hatsune Miku"
    INDEX 00 30:00:54
    INDEX 01 30:02:65
  TRACK 10 AUDIO
    TITLE "paranoia"
    PERFORMER "つなまる Feat. Hatsune Miku Append (Dark)"
    INDEX 00 33:46:24
    INDEX 01 33:48:36
  TRACK 11 AUDIO
    TITLE "Black Board"
    PERFORMER "蝶々P Feat. Hatsune Miku"
    INDEX 00 37:35:74
    INDEX 01 37:38:10
  TRACK 12 AUDIO
    TITLE "風待ちハローワールド"
    PERFORMER "add9 (ヘリP) Feat. Hatsune Miku"
    INDEX 00 41:17:73
    INDEX 01 41:20:09
  TRACK 13 AUDIO
    TITLE "こちら、幸福安心委員会です。"
    PERFORMER "t.Komine (うたたP) Feat. Hatsune Miku"
    INDEX 00 45:48:23
    INDEX 01 45:50:34
  TRACK 14 AUDIO
    TITLE "bitter"
    PERFORMER "keeno Feat. Hatsune Miku Append (Dark)"
    INDEX 00 50:22:13
    INDEX 01 50:24:25
  TRACK 15 AUDIO
    TITLE "永遠に幸せになる方法、見つけました。"
    PERFORMER "t.Komine (うたたP) Feat. Hatsune Miku"
    INDEX 00 55:11:31
    INDEX 01 55:13:42

Код: выделить все
REM GENRE "Japanese Pop"
REM DATE 2017
REM DISCID AB0C5D0D
REM COMMENT "ExactAudioCopy v1.1"
PERFORMER "Various Artists"
TITLE "EXIT TUNES PRESENTS Vocalohistory Feat. Hatsune Miku [Disc 4]"
FILE "Vocalohistory [Disc 4].flac" WAVE
  TRACK 01 AUDIO
    TITLE "サリシノハラ"
    PERFORMER "みきとP Feat. Hatsune Miku"
    INDEX 01 00:00:00
  TRACK 02 AUDIO
    TITLE "純情スカート"
    PERFORMER "40mP Feat. Hatsune Miku"
    INDEX 00 04:30:67
    INDEX 01 04:32:03
  TRACK 03 AUDIO
    TITLE "東京レトロ"
    PERFORMER "すこっぷ Feat. Hatsune Miku"
    INDEX 00 08:38:49
    INDEX 01 08:40:60
  TRACK 04 AUDIO
    TITLE "終点"
    PERFORMER "cosMo Feat. Hatsune Miku"
    INDEX 00 12:33:58
    INDEX 01 12:35:70
  TRACK 05 AUDIO
    TITLE "妄想税"
    PERFORMER "DECO*27 Feat. Hatsune Miku"
    INDEX 00 16:41:65
    INDEX 01 16:44:01
  TRACK 06 AUDIO
    TITLE "タイム真心"
    PERFORMER "おにゅうP, かごめP Feat. Hatsune Miku"
    INDEX 00 20:18:05
    INDEX 01 20:19:54
  TRACK 07 AUDIO
    TITLE "ウミユリ海底譚"
    PERFORMER "ナブナ Feat. Hatsune Miku"
    INDEX 00 24:12:68
    INDEX 01 24:14:05
  TRACK 08 AUDIO
    TITLE "すろぉもぉしょん"
    PERFORMER "ピノキオP Feat. Hatsune Miku"
    INDEX 00 28:09:24
    INDEX 01 28:11:35
  TRACK 09 AUDIO
    TITLE "恋愛裁判"
    PERFORMER "40mP Feat. Hatsune Miku"
    INDEX 00 33:20:41
    INDEX 01 33:21:52
  TRACK 10 AUDIO
    TITLE "ツギハギスタッカート"
    PERFORMER "とあ Feat. Hatsune Miku"
    INDEX 00 37:02:25
    INDEX 01 37:04:37
  TRACK 11 AUDIO
    TITLE "メリュー"
    PERFORMER "ナブナ Feat. Hatsune Miku"
    INDEX 00 41:09:63
    INDEX 01 41:12:00
  TRACK 12 AUDIO
    TITLE "エキシビション空中戦"
    PERFORMER "ナユタン星人 Feat. Hatsune Miku"
    INDEX 00 44:43:09
    INDEX 01 44:45:20
  TRACK 13 AUDIO
    TITLE "いままでも、このときも、これからも――"
    PERFORMER "cosMo Feat. Hatsune Miku"
    INDEX 00 47:52:44
    INDEX 01 47:54:56

YouTube
Детали торрента:
Название:Vocalohistory (2017) [FLAC|Lossless|image+.cue] <J-Pop, Vocaloid>
Дата добавления:18 Май 2017 00:22:03
Размер:1,67 GB
Раздают:3
Качают:0
Форум:Other Asian (Lossless)

All rights reserved © 2015-2018