TORRENTS45.XYZ

Скачать Смягчающие обстоятельства (2017) WEB-DL [H.264/1080p-LQ] (серии 1-4 из 4)


Смягчающие обстоятельства (2017) WEB-DL [H.264/1080p-LQ] (серии 1-4 из 4)
Производство: Россия, Украина, Польша / Кинокомпания "Русское"
Жанр: мелодрама

Режиссер: Игорь Мужжухин, Сергей Васьковский
Актеры: Екатерина Рябова, Илья Оболонков, Максим Щеголев, Валерия Моисеева, Екатерина Травова, Анатолий Котенёв, Людмила Гаврилова, Игорь Гудеев, Алексей Сидоров и др.

Описание:
Юлия Павлова — талантливая пианистка, преподает в музыкальной школе. В нее с первого взгляда влюбляется обаятельный молодой человек — чиновник Сергей, и вскоре они женятся. Юлия продолжает преподавать, а Сергей обеспечивает семью. Счастливый брак омрачает лишь бесплодие Юлии.


Возраст: 12+ (зрителям, достигшим 12 лет)
Дата российской премьеры: 14 мая 2017

Релиз от: Алехаndr

Продолжительность: 03:01:12
Качество видео: WEB-DL

Видео: AVC/H.264, 1920x1080 (16:9), ~2757 Kbps
Аудио: AC3, 2 ch, 192 Kbps

Mediainfo:


Общее
Уникальный идентификатор : 244292706363610969114586738908131735770 (0xB7C91057B1B8A4B29D1A5928F33FB8DA)
Полное имя : D:\Смягчающие обстоятельства (2017)\Серии 1-4.mkv
Формат : Matroska
Версия формата : Version 4 / Version 2
Размер файла : 3,74 Гбайт
Продолжительность : 3 ч. 1 м.
Общий поток : 2951 Кбит/сек
Дата кодирования : UTC 2017-05-14 14:08:50
Программа кодирования : mkvmerge v11.0.0 ('Alive') 64bit
Библиотека кодирования : libebml v1.3.4 + libmatroska v1.4.5 / Lavf57.25.100

Видео
Идентификатор : 1
Формат : AVC
Формат/Информация : Advanced Video Codec
Профиль формата : High@L4
Параметр CABAC формата : Да
Параметр ReFrames формата : 2 кадра
Идентификатор кодека : V_MPEG4/ISO/AVC
Продолжительность : 3 ч. 1 м.
Битрейт : 2757 Кбит/сек
Ширина : 1920 пикселей
Высота : 1080 пикселей
Соотношение сторон : 16:9
Режим частоты кадров : Постоянный
Частота кадров : 25,000 кадров/сек
Цветовое пространство : YUV
Субдискретизация насыщенности : 4:2:0
Битовая глубина : 8 бит
Тип развёртки : Прогрессивная
Бит/(Пиксели*Кадры) : 0.053
Размер потока : 3,49 Гбайт (93%)
Default : Да
Forced : Нет
Цветовой диапазон : Limited
Основные цвета : BT.709
Характеристики трансфера : BT.709
Коэффициенты матрицы : BT.709

Аудио
Идентификатор : 2
Формат : AC-3
Формат/Информация : Audio Coding 3
Параметр Endianness формата : Big
Идентификатор кодека : A_AC3
Продолжительность : 3 ч. 1 м.
Вид битрейта : Постоянный
Битрейт : 192 Кбит/сек
Каналы : 2 канала
Расположение каналов : Front: L R
Частота : 44,1 КГц
Частота кадров : 28,711 кадров/сек (1536 spf)
Битовая глубина : 16 бит
Метод сжатия : С потерями
Задержка видео : -40 мс.
Размер потока : 249 Мбайт (7%)
ServiceKind/String : Complete Main
Default : Да
Forced : Нет
Скриншоты:



Смотреть Online

http://moonwalk.cc/serial/6d52bf0cdecb1e615c6c766b97184705/iframe
Детали торрента:
Название:Смягчающие обстоятельства (2017) WEB-DL [H.264/1080p-LQ] (серии 1-4 из 4)
Дата добавления:14 Май 2017 17:17:36
Размер:3,74 GB
Раздают:
Качают:0
Форум:Отечественные сериалы

All rights reserved © 2015-2018