TORRENTS45.XYZ

Скачать Возвращение в Эдем 2 / Return to Eden (1986) TVRip (Сезон 1, серии 1-22 из 22)


Возвращение в Эдем 2 / Return to Eden (1986) TVRip (Сезон 1, серии 1-22 из 22)
Производство: Австралия, McElroy & McElroy
Жанр: Мелодрама, Драма, Триллер

Режисер: Кэрен Артур /Karen Arthur
Актеры: Ребекка Гиллинг / Rebecca Gilling, Джеймс Райн / James Reyne, Уэнди Хьюз / Wendy Hughes, Джеймс Смайли / James Smilie, Оливиа Хэмнетт / Olivia Hamnett, Патриция Кеннеди / Patricia Kennedy

Описание:
Стефани — одна из самых богатых женщин Австралии — выходит замуж за звезду профессионального тенниса Грега Марстена. Они собираются провести медовый месяц в "Эдеме", её семейном поместье. Но неутомимый бабник Грег положил глаз на лучшую подругу жены. Заманив Стефани на прогулку в дикие болота, Грег выбрасывает ее из лодки в кишащие крокодилами воды. Стефани чудом удалось спастись. Пластическая хирургия помогла ей изменить внешность и обрести новую личность. Стефани превращается в соблазнительную красавицу- фотомодель по имени Тара. Она покоряет мир высокой моды и возвращается в "Эдем". Никем не узнанная, она мгновенно очаровывает Грега. Капкан для изменника-мужа и бывшей подруги готов захлопнуться...



Продолжительность: 22 серии по ~00:45:00
Качество видео: TVRip
Перевод: Профессиональный (многоголосый закадровый)

Формат: AVI
Видео кодек: DivX
Видео: 384x288, 432x320, ~948 kbps
Аудио: MP3, ~128 kbps VBR

MediaInfo:

Return.to.Eden-II-01-02.TVRip-(DivX.rus).avi
Формат : AVI
Формат/Информация : Audio Video Interleave
Размер файла : 700 Мбайт
Продолжительность : 1 ч. 29 м.
Режим общего битрейта : Переменный
Общий поток : 1098 Кбит/сек
Программа кодирования : VirtualDubMod 1.5.4.1 (build 2178/release)
Библиотека кодирования : VirtualDubMod build 2178/release

Видео
Идентификатор : 0
Формат : MPEG-4 Visual
Параметр BVOP формата : 1
Параметр QPel формата : Нет
Параметр GMC формата : Без точки перехода
Параметр матрицы формата : Default (H.263)
Режим смешивания : Сжатый битовый поток
Идентификатор кодека : DX50
Идентификатор кодека/Подсказка : DivX 5
Продолжительность : 1 ч. 29 м.
Битрейт : 949 Кбит/сек
Ширина : 384 пикселя
Высота : 288 пикселей
Соотношение сторон : 4:3
Частота кадров : 25,000 кадров/сек
Цветовое пространство : YUV
Субдискретизация насыщенности : 4:2:0
Битовая глубина : 8 бит
Тип развёртки : Прогрессивная
Метод сжатия : С потерями
Бит/(Пиксели*Кадры) : 0.343
Размер потока : 605 Мбайт (86%)
Библиотека кодирования : DivX 5.0.3 (UTC 2003-01-24)

Аудио
Идентификатор : 1
Формат : MPEG Audio
Версия формата : Version 1
Профиль формата : Layer 3
Режим : Joint stereo
Расширение режима : MS Stereo
Идентификатор кодека : 55
Идентификатор кодека/Подсказка : MP3
Продолжительность : 1 ч. 29 м.
Вид битрейта : Переменный
Битрейт : 136 Кбит/сек
Номинальный битрейт : 128 Кбит/сек
Каналы : 2 канала
Частота : 48,0 КГц
Метод сжатия : С потерями
Задержка видео : 24 мс.
Размер потока : 86,8 Мбайт (12%)
Выравнивание : Разделение по промежуткам
Продолжительность промежутка : 24 мс. (0,60 видеокадр)
Время предзагрузки промежутка : 524 мс.
Библиотека кодирования : LAME3.90.
Настройки программы : -m j -V 4 -q 2 -lowpass 17.6 --abr 128
Язык : English
Скриншоты:

«Возвращение в Эдем / Return to Eden» на Torrents45.xyz
Детали торрента:
Название:Возвращение в Эдем 2 / Return to Eden (1986) TVRip (Сезон 1, серии 1-22 из 22)
Дата добавления:14 Фев 2009 21:51:04
Размер:7,52 GB
Раздают:
Качают:0
Форум:Зарубежные сериалы

All rights reserved © 2015-2018