TORRENTS45.XYZ

Скачать Идеальный ремонт (06/05/2014) SATRip


Идеальный ремонт (2017) SATRip
Телекомпания: 1 канал
Год выпуска: 2017
Жанр: Документальный, Телепередача

Описание:
Профессиональный дизайнер Наташа Барбье вместе с командой экспертов приходит в самые обычные квартиры, чтобы создать героям идеальный интерьер.
Входя в квартиру, ведущая еще не знакома с героями, но по оформлению и интерьеру пытается составить психологический портрет хозяев: их возраст, увлечения, образ жизни.
Действие программы разворачивается не только в квартире героев, но и в студии (она же арт-бюро). Здесь за столом собираются дизайнеры и эксперты. В обсуждениях рождается и выбирается единственно верный идеальный вариант.

Продолжительность: 00:44:58
Качество видео: SATRip

Релиз: -=DeMoH=-

Видеокодек: xVID
Битрейт видео: 1 797 Кбит/сек
Размер кадра: 704x448
Аудиокодек: AC3, 2 ch
Битрейт аудио: 192 Кбит/сек

MediaInfo:

General
Complete name : Idealniy.Remont.06.05.2017.SATRip.avi
Format : AVI
Format/Info : Audio Video Interleave
File size : 643 MiB
Duration : 44 min 58 s
Overall bit rate : 1 999 kb/s
Writing application : VirtualDubMod 1.5.10.3 | www.virtualdub-fr.org || (build 2550/release)
Writing library : VirtualDubMod build 2550/release

Video
ID : 0
Format : MPEG-4 Visual
Format profile : Advanced Simple@L5
Format settings, BVOP : 2
Format settings, QPel : No
Format settings, GMC : No warppoints
Format settings, Matrix : Default (H.263)
Codec ID : XVID
Codec ID/Hint : XviD
Duration : 44 min 58 s
Bit rate : 1 797 kb/s
Width : 704 pixels
Height : 448 pixels
Display aspect ratio : 16:10
Frame rate : 25.000 FPS
Color space : YUV
Chroma subsampling : 4:2:0
Bit depth : 8 bits
Scan type : Progressive
Compression mode : Lossy
Bits/(Pixel*Frame) : 0.228
Stream size : 578 MiB (90%)
Writing library : XviD 1.2.1 (UTC 2008-12-04)

Audio
ID : 1
Format : AC-3
Format/Info : Audio Coding 3
Mode extension : CM (complete main)
Format settings, Endianness : Big
Codec ID : 2000
Duration : 44 min 58 s
Bit rate mode : Constant
Bit rate : 192 kb/s
Channel(s) : 2 channels
Channel positions : Front: L R
Sampling rate : 48.0 kHz
Frame rate : 31.250 FPS (1536 spf)
Bit depth : 16 bits
Compression mode : Lossy
Stream size : 61.8 MiB (10%)
Alignment : Split accross interleaves
Interleave, duration : 40 ms (1.00 video frame)
Interleave, preload duratio : 500 ms

Скриншоты:


Детали торрента:
Название:Идеальный ремонт (06/05/2014) SATRip
Дата добавления:06 Май 2017 12:12:17
Размер:643 MB
Раздают:
Качают:0
Форум:Дизайн

All rights reserved © 2015-2019