TORRENTS45.XYZ

Скачать Манчестер у моря / Manchester by the Sea (2016) HDRip


Манчестер у моря / Manchester by the Sea (2016) HDRip
Производство: США
Жанр: Драма

Режиссер: Кеннет Лонерган
Актеры: Кейси Аффлек, Мишель Уильямс, Кайл Чандлер, Лукас Хеджес, Бен О’Брайэн, Ричард Донелли, Вирджиния Лоринг Кук, Куинси Тайлер Бернстайн, Мисси Ягер, Стивен Хендерсон

Описание:
Нелюдимый и погруженный в себя Ли работает слесарем в многоквартирном доме. Узнав, что его старший брат умер, Ли возвращается в родной городок. Он вспоминает свою жизнь в этом городе и страшную трагедию, произошедшую с его собственной семьей. Неожиданно он узнает, что в завещании брат указал его опекуном 16-летнего племянника. Через взаимоотношения с подростком Ли пытается найти смысл дальнейшего существования.


Возраст: 18+ (зрителям, достигшим 18 лет. запрещено для детей)
Рейтинг MPAA: R (лицам до 17 лет обязательно присутствие взрослого)
Дата мировой премьеры: 23 января 2016
Дата российской премьеры: 23 марта 2017, «UPI»

Продолжительность: 02:17:32
Качество видео: HDRip
Перевод: Дублированный (Лицензия BD CEE)
Субтитры: Отсутствуют

Видео: Xvid, 720x384, ~1677 kbps
Аудио: AC3, 6 ch, 448 kbps

Mediainfo:


Общее
Полное имя : C:Торренты\Манчестер у моря.2016.D.HDRip.avi
Формат : AVI
Формат/Информация : Audio Video Interleave
Профиль формата : OpenDML
Размер файла : 2,05 Гбайт
Продолжительность : 2 ч. 17 м.
Общий поток : 2137 Кбит/сек
Программа кодирования : VirtualDubMod 1.5.10.2 (build 2540/release)
Библиотека кодирования : VirtualDubMod build 2540/release

Видео
Идентификатор : 0
Формат : MPEG-4 Visual
Профиль формата : Advanced Simple@L5
Параметр BVOP формата : 2
Параметр QPel формата : Нет
Параметр GMC формата : Без точки перехода
Параметр матрицы формата : Default (MPEG)
Идентификатор кодека : XVID
Идентификатор кодека/Подсказка : XviD
Продолжительность : 2 ч. 17 м.
Битрейт : 1677 Кбит/сек
Ширина : 720 пикселей
Высота : 384 пикселя
Соотношение сторон : 1,85:1
Частота кадров : 23,976 (24000/1001) кадра/сек
Цветовое пространство : YUV
Субдискретизация насыщенности : 4:2:0
Битовая глубина : 8 бит
Тип развёртки : Прогрессивная
Метод сжатия : С потерями
Бит/(Пиксели*Кадры) : 0.253
Размер потока : 1,61 Гбайт (78%)
Библиотека кодирования : XviD 1.2.1 (UTC 2008-12-04)

Аудио
Идентификатор : 1
Формат : AC-3
Формат/Информация : Audio Coding 3
Параметр Endianness формата : Big
Идентификатор кодека : 2000
Продолжительность : 2 ч. 17 м.
Вид битрейта : Постоянный
Битрейт : 448 Кбит/сек
Каналы : 6 каналов
Расположение каналов : Front: L C R, Side: L R, LFE
Частота : 48,0 КГц
Частота кадров : 31,250 кадров/сек (1536 spf)
Битовая глубина : 16 бит
Метод сжатия : С потерями
Размер потока : 440 Мбайт (21%)
Выравнивание : Разделение по промежуткам
Продолжительность промежутка : 42 мс. (1,00 видеокадр)
Время предзагрузки промежутка : 500 мс.
ServiceKind/String : Complete Main
Скриншоты:


Все одноименные релизы в Клубе

Смотреть Online

http://moonwalk.cc/video/d6b4f58e86348d1e/iframe
Детали торрента:
Название:Манчестер у моря / Manchester by the Sea (2016) HDRip
Дата добавления:22 Апр 2017 14:17:18
Размер:2,05 GB
Раздают:2
Качают:0
Форум:Зарубежные Фильмы (HD*Rip/LQ, DVDRip, SATRip, VHSRip)

All rights reserved © 2015-2018