TORRENTS45.XYZ

Скачать О любви (2017) WEB-DL [H.264/1080p-LQ]


О любви (2017) WEB-DL [H.264/1080p-LQ]
Производство: Россия, Studio 2-B-2 entertainment
Жанр: Мелодрама

Режиссер: Владимир Бортко
Продюсер: Наталия Бортко, Елена Иванова
Актеры: Анна Чиповская, Алексей Чадов, Мария Миронова, Александр Лыков, Дмитрий Певцов, Светлана Хомич, Ольга Павлюкова, Клавдия Белова

Описание:
Петербурженка Нина — студентка, жена молодого красавца-профессора, который знает китайский язык и учения Поднебесной, похоже, лучше, чем окружающую российскую действительность. Нина убеждена, что супружеская верность и смирение и есть любовь. Но всё меняется, когда в её жизни появляется банкир Сергей.


Возраст: 16+ (зрителям, достигшим 16 лет)
Дата российской премьеры: 23 марта 2017, «Люксор»

Продолжительность: 01:34:43
Качество видео: WEB-DL
Перевод: Не требуется (русский) iTunes
Субтитры: Отсутствуют

Видео: AVC/H.264, 1920x1036 (1.85.1), 5100 kbps
Аудио: 48 kHz, AC3 Dolby Digital, 3/2 (L,C,R,l,r) + LFE ch, ~384 kbps

MediaInfo:

Общее
Уникальный идентификатор : 211415412370711798875955170264200190166 (0x9F0D2099497454A28AA7AD8AFA3718D6)
Полное имя : D:\О.любви.2017.WEB-DL.[1080p].torrents45.xyzv
Формат : Matroska
Версия формата : Version 2
Размер файла : 3,70 Гбайт
Продолжительность : 1 ч. 34 м.
Общий поток : 5595 Кбит/сек
Дата кодирования : UTC 2017-04-16 18:12:16
Программа кодирования : mkvmerge v8.3.0 ('Over the Horizon') 64bit
Библиотека кодирования : libebml v1.3.1 + libmatroska v1.4.2

Видео
Идентификатор : 1
Формат : AVC
Формат/Информация : Advanced Video Codec
Профиль формата : High@L4
Параметр CABAC формата : Да
Параметр ReFrames формата : 4 кадра
Идентификатор кодека : V_MPEG4/ISO/AVC
Продолжительность : 1 ч. 34 м.
Битрейт : 5100 Кбит/сек
Ширина : 1920 пикселей
Высота : 1036 пикселей
Соотношение сторон : 1,85:1
Режим частоты кадров : Постоянный
Частота кадров : 24,000 кадра/сек
Цветовое пространство : YUV
Субдискретизация насыщенности : 4:2:0
Битовая глубина : 8 бит
Тип развёртки : Прогрессивная
Бит/(Пиксели*Кадры) : 0.107
Размер потока : 3,37 Гбайт (91%)
Язык : English
Default : Да
Forced : Нет
Цветовой диапазон : Limited
Основные цвета : BT.709
Характеристики трансфера : BT.709
Коэффициенты матрицы : BT.709

Аудио
Идентификатор : 2
Формат : AC-3
Формат/Информация : Audio Coding 3
Расширение режима : CM (complete main)
Параметр Endianness формата : Big
Идентификатор кодека : A_AC3
Продолжительность : 1 ч. 34 м.
Вид битрейта : Постоянный
Битрейт : 384 Кбит/сек
Каналы : 6 каналов
Расположение каналов : Front: L C R, Side: L R, LFE
Частота : 48,0 КГц
Метод сжатия : С потерями
Размер потока : 260 Мбайт (7%)
Язык : Russian
Default : Да
Forced : Нет

Меню
00:00:00.000 : en:Глава 1
00:08:35.875 : en:Глава 2
00:14:39.250 : en:Глава 3
00:19:33.041 : en:Глава 4
00:25:52.041 : en:Глава 5
00:31:20.291 : en:Глава 6
00:37:38.291 : en:Глава 7
00:46:07.874 : en:Глава 8
00:51:37.915 : en:Глава 9
00:57:39.373 : en:Глава 10
01:02:57.623 : en:Глава 11
01:08:00.123 : en:Глава 12
01:13:40.414 : en:Глава 13
01:19:37.080 : en:Глава 14
01:27:52.871 : en:Глава 15
Скриншоты:


Все одноименные релизы в Клубе

Смотреть Online

http://37.220.36.15/video/7f3047e18d3fea6a/iframe
Детали торрента:
Название:О любви (2017) WEB-DL [H.264/1080p-LQ]
Дата добавления:16 Апр 2017 22:39:56
Размер:3,7 GB
Раздают:9
Качают:0
Форум:Отечественные Фильмы (HD*Rip/LQ, DVDRip, SATRip, VHSRip)

All rights reserved © 2015-2018