TORRENTS45.XYZ

Скачать Threshold - For The Journey (2014) [FLAC|Lossless|image + .cue] <Progressive Metal>


Threshold - For The Journey (2014)
Жанр: Progressive Metal
Продолжительность: 00:55:00

Кодек: FLAC
Битрейт: Lossless
Тип рипа: image + .cue

Треклист:
1. Watchtower On The Moon (05:32)
2. Unforgiven (05:37)
3. The Box (11:59)
4. Turned To Dust (04:19)
5. Lost In Your Memory (04:36)
6. Autumn Red (05:41)
7. The Mystery Show (05:37)
8. Siren Sky (06:10)
9. I Wish I Could (Bonus Track) (05:29)

Отчёт EAC:


Exact Audio Copy V1.0 beta 3 from 29. August 2011

EAC extraction logfile from 20. September 2014, 1:42

Threshold / For The Journey

Used drive : ATAPI iHAS122 W Adapter: 2 ID: 0

Read mode : Secure
Utilize accurate stream : Yes
Defeat audio cache : Yes
Make use of C2 pointers : No

Read offset correction : 48
Overread into Lead-In and Lead-Out : No
Fill up missing offset samples with silence : Yes
Delete leading and trailing silent blocks : No
Null samples used in CRC calculations : Yes
Used interface : Installed external ASPI interface

Used output format : User Defined Encoder
Selected bitrate : 1024 kBit/s
Quality : High
Add ID3 tag : No
Command line compressor : C:\Program Files\FLAC\flac.exe
Additional command line options : -V -8 -T "Date=%year%" -T "Genre=%genre%" -T"COMMENT=Ripped by Ilijan" -8 -V %source%

TOC of the extracted CD

Track | Start | Length | Start sector | End sector
---------------------------------------------------------
1 | 0:00.00 | 5:32.07 | 0 | 24906
2 | 5:32.07 | 5:37.01 | 24907 | 50182
3 | 11:09.08 | 11:59.00 | 50183 | 104107
4 | 23:08.08 | 4:19.00 | 104108 | 123532
5 | 27:27.08 | 4:36.00 | 123533 | 144232
6 | 32:03.08 | 5:41.00 | 144233 | 169807
7 | 37:44.08 | 5:37.00 | 169808 | 195082
8 | 43:21.08 | 6:10.00 | 195083 | 222832
9 | 49:31.08 | 5:28.59 | 222833 | 247491

Range status and errors

Selected range

Filename D:\Ilijan\Threshold - For The Journey.wav

Peak level 98.8 %
Extraction speed 4.0 X
Range quality 100.0 %
Test CRC 5D746FE1
Copy CRC 5D746FE1
Copy OK

No errors occurred

AccurateRip summary

Track 1 not present in database
Track 2 not present in database
Track 3 not present in database
Track 4 not present in database
Track 5 not present in database
Track 6 not present in database
Track 7 not present in database
Track 8 not present in database
Track 9 not present in database

None of the tracks are present in the AccurateRip database

End of status report

---- CUETools DB Plugin V2.1.3

[CTDB TOCID: JcOvCpnRc9B10uuimupk8Af3hIM-] disk not present in database, Submit result: JcOvCpnRc9B10uuimupk8Af3hIM- has been uploaded

==== Log checksum 613DAA5D1965320EFDE903954E6CAFE05B337633A355F9E9F17803743BE7CD87 ====

Cue Sheet (.cue):


REM GENRE "Progressive Metal"
REM DATE 2014
REM DISCID 7C0CE309
REM COMMENT "ExactAudioCopy v1.0b3"
PERFORMER "Threshold"
TITLE "For The Journey"
FILE "Threshold - For The Journey.flac" WAVE
TRACK 01 AUDIO
TITLE "Watchtower On The Moon"
PERFORMER "Threshold"
INDEX 01 00:00:00
TRACK 02 AUDIO
TITLE "Unforgiven"
PERFORMER "Threshold"
INDEX 00 05:31:10
INDEX 01 05:32:07
TRACK 03 AUDIO
TITLE "The Box"
PERFORMER "Threshold"
INDEX 00 11:08:10
INDEX 01 11:09:08
TRACK 04 AUDIO
TITLE "Turned To Dust"
PERFORMER "Threshold"
INDEX 00 23:04:10
INDEX 01 23:08:08
TRACK 05 AUDIO
TITLE "Lost In Your Memory"
PERFORMER "Threshold"
INDEX 00 27:24:10
INDEX 01 27:27:08
TRACK 06 AUDIO
TITLE "Autumn Red"
PERFORMER "Threshold"
INDEX 00 32:02:10
INDEX 01 32:03:08
TRACK 07 AUDIO
TITLE "The Mystery Show"
PERFORMER "Threshold"
INDEX 00 37:42:10
INDEX 01 37:44:08
TRACK 08 AUDIO
TITLE "Siren Sky"
PERFORMER "Threshold"
INDEX 00 43:20:10
INDEX 01 43:21:08
TRACK 09 AUDIO
TITLE "I Wish I Could (Bonus Track)"
PERFORMER "Threshold"
INDEX 00 49:27:10
INDEX 01 49:31:08

Отчёт auCDtect Task manager:


-----------------------

DON'T MODIFY THIS FILE

-----------------------

PERFORMER: auCDtect Task Manager, ver. 1.6.0 RC1 build 1.6.0.1
Copyright (c) 2008-2010 y-soft. All rights reserved
http://y-soft.org

ANALYZER: auCDtect: CD records authenticity detector, version 0.8.2
Copyright (c) 2004 Oleg Berngardt. All rights reserved.
Copyright (c) 2004 Alexander Djourik. All rights reserved.

FILE: Threshold - For The Journey.flac
Size: 418283409 Hash: FCA48EC70DF065DEB18D45449FBC9BED Accuracy: -m0
Conclusion: CDDA 100%
Signature: 4DD152DBE3C7CE6BFDAB9F9673D30EFAF83E0885
YouTube
Детали торрента:
Название:Threshold - For The Journey (2014) [FLAC|Lossless|image + .cue] <Progressive Metal>
Дата добавления:08 Апр 2017 13:29:12
Размер:432 MB
Раздают:
Качают:0
Форум:Архив Музыки

All rights reserved © 2015-2018