TORRENTS45.XYZ

Скачать Крыша мира (2017) WEB-DLRip (сезон 2, серии 1-20 из 20)


Крыша мира (2017) WEB-DLRip (сезон 2, серии 1-20 из 20)
Производство: Россия / Yellow, Black and White и кинокомпания «Небо»
Жанр: комедия

Режиссер: Роман Фокин
Актеры: Алексей Бардуков, Илья Глинников, Ирина Старшенбаум, Николай Козак, Александр Робак, Ирина Темичева, Светлана Костюкова, Александр Андриенко, Александр Константинов, Андрей Щеткин, Алексей Гришин и др.

Описание:
История трех молодых людей, волей случая оказавшихся вместе. И в очень хорошем месте — огромной квартире в самом центре Москвы с выходом на крышу и головокружительным видом на город. Герои решают открыть в квартире хостел — бюджетную гостиницу. У них есть все, чтобы преуспеть — организаторские способности одного, дизайнерский талант другого и, разумеется, сама квартира. Что из этого получится? Знают только они, ну и сварливый сосед — бывший прапорщик — который изо всех сил будет мешать этой бизнес-идее состояться. Жизнь современной Москвы глазами 20-летних и с высоты птичьего полета.


Возраст: 16+ (зрителям, достигшим 16 лет)

Продолжительность: ~00:24:00 серия
Качество видео: WEB-DLRip

Видео: XviD, 720x400 (16:9), ~1409 kbps
Аудио: AC3, 2 ch, 192 kbps

Mediainfo:


Общее
Полное имя : D:\СЕРИАЛЫ\КРЫША МИРА\Крыша мира 2 2017.WEB-DLRip.Files-x\01.Крыша мира - 2 .2017.WEB-DLRip.Files-x.avi
Формат : AVI
Формат/Информация : Audio Video Interleave
Размер файла : 302 Мбайт
Продолжительность : 26 м.
Общий поток : 1610 Кбит/сек
Программа кодирования : VirtualDubMod 1.5.10.3 | www.virtualdub-fr.org || (build 2550/release)
Библиотека кодирования : VirtualDubMod build 2550/release

Видео
Идентификатор : 0
Формат : MPEG-4 Visual
Профиль формата : Advanced Simple@L5
Параметр BVOP формата : 1
Параметр QPel формата : Нет
Параметр GMC формата : Без точки перехода
Параметр матрицы формата : Выборочная
Идентификатор кодека : XVID
Идентификатор кодека/Подсказка : XviD
Продолжительность : 26 м.
Битрейт : 1409 Кбит/сек
Ширина : 720 пикселей
Высота : 400 пикселей
Соотношение сторон : 16:9
Частота кадров : 25,000 кадров/сек
Цветовое пространство : YUV
Субдискретизация насыщенности : 4:2:0
Битовая глубина : 8 бит
Тип развёртки : Прогрессивная
Метод сжатия : С потерями
Бит/(Пиксели*Кадры) : 0.196
Размер потока : 264 Мбайт (87%)
Библиотека кодирования : XviD 73

Аудио
Идентификатор : 1
Формат : AC-3
Формат/Информация : Audio Coding 3
Расширение режима : CM (complete main)
Параметр Endianness формата : Big
Идентификатор кодека : 2000
Продолжительность : 26 м.
Вид битрейта : Постоянный
Битрейт : 192 Кбит/сек
Каналы : 2 канала
Расположение каналов : Front: L R
Частота : 48,0 КГц
Частота кадров : 31,250 кадров/сек (1536 spf)
Метод сжатия : С потерями
Размер потока : 36,0 Мбайт (12%)
Выравнивание : Разделение по промежуткам
Продолжительность промежутка : 40 мс. (1,00 видеокадр)
Время предзагрузки промежутка : 500 мс.
Скриншоты:



Смотреть Online

http://moonwalk.cc/serial/7962fc19f9a6ddee5ada1a6c18da0e03/iframe
Детали торрента:
Название:Крыша мира (2017) WEB-DLRip (сезон 2, серии 1-20 из 20)
Дата добавления:31 Мар 2017 20:34:36
Размер:5,87 GB
Раздают:
Качают:0
Форум:Отечественные сериалы

All rights reserved © 2015-2018