TORRENTS45.XYZ

Скачать Голос монстра / A Monster Calls (2016) BDRip [720p] ATV


Голос монстра / A Monster Calls (2016) BDRip [720p] ATV
«Stories are wild creatures»

Год выпуска: 2016
Производство: США, Испания
Жанр: Фэнтези, драма
Продолжительность: 01:48:25

Перевод: Дублированный (iTunes)
Субтитры: Русские, Английские
Режиссер: Хуан Антонио Байона
Актеры: Льюис МакДугалл, Сигурни Уивер, Фелисити Джонс, Тоби Кеббелл, Бен Моор, Джеймс Мелвилл, Оливер Стир, Доминик Бойл, Дженнифер Лим, Макс Габбей, Морган Симес

Мировая премьера: 9 сентября 2016



Описание: Поражающая воображение история о мальчике Конноре и монстре из его снов. Когда Коннору особенно тяжело, происходит нечто невероятное — старое тисовое дерево за окном оживает и превращается в громадное чудовище. По ночам монстр рассказывает Коннору истории, которые помогут ему понять, что даже когда весь мир рушится, можно найти в себе силы и не отчаиваться.
Качество: BDRip 720p
Контейнер: M4V
Видео: H.264, 1280x544, 2.35:1, 3 500 Kbps, 23.976 (24000/1001) fps

Аудио 1: Русский/Дублированный (iTunes), AAC / 2.0 / 160 Kbps / 48.0 KHz
Аудио 2: Английский/Оригинальная дорожка , AAC / 2.0 / 160 Kbps / 48.0 KHz
Аудио 3: Русский/Дублированный (iTunes), AC-3 / 5.1 / 384 Kbps / 48.0 KHz
Аудио 4: Английский/Оригинальная дорожка , AC-3 / 5.1 / 448 Kbps / 48.0 KHz

iTunes Meta Tags

Код: выделить все

Sort Name: Monster Calls
XID: Apple:vendor_id:2016-839600
contentID: 1187405049
Copyright: © 2016 Focus Features. All Rights Reserved.
Screenwriters: Патрик Несс, Siobhan Dowd
Producers: Белен Атьенса, Альваро Аугустин, Жислен Баруа
Director: Хуан Антонио Байона
Cast: Льюис МакДугалл, Сигурни Уивер, Фелисити Джонс, Тоби Кеббелл, Бен Моор, Джеймс Мелвилл, Оливер Стир, Доминик Бойл, Дженнифер Лим, Макс Габбей, Любовь Германова, Иван Жарков, Владимир Антоник
Studio: Focus Features
Rating: 4
Long Description: Поражающая воображение история о мальчике Конноре и монстре из его снов. Когда Коннору особенно тяжело, происходит нечто невероятное - старое тисовое дерево за окном оживает и превращается в громадное чудовище. По ночам монстр рассказывает Коннору истории, которые помогут ему понять, что даже когда весь мир рушится, можно найти в себе силы и не отчаиваться.
Description: Поражающая воображение история о мальчике Конноре и монстре из его снов. Когда Коннору особенно тяжело, происходит нечто невероятное - старое тисовое дерево за окном оживает и превращается в громадное чудовище. По ночам монстр рассказывает Коннору истории, которые помогут ему понять, что даже когда весь мир рушится, можно найти в себе силы и не отчаиваться.
Release Date: 2016-09-09T08:00:00Z
Genre: Drama
Artist: Juan Antonio Bayona
Name: A Monster Calls

MediaInfo

Код: выделить все

General
Complete name                            : /Users/imac/HandBrake/A Monster Calls (720p HD).m4v
Format                                   : MPEG-4
Codec ID                                 : M4V  (M4V /M4A /mp42/isom)
File size                                : 3.52 GiB
Duration                                 : 1h 48mn
Overall bit rate mode                    : Variable
Overall bit rate                         : 4 650 Kbps
Movie name                               : A Monster Calls
Performer                                : Juan Antonio Bayona
Director                                 : Хуан Антонио Байона
Actor                                    : Льюис МакДугалл / Сигурни Уивер / Фелисити Джонс / Тоби Кеббелл / Бен Моор / Джеймс Мелвилл / Оливер Стир / Доминик Бойл / Дженнифер Лим / Макс Габбей / Любовь Германова / Иван Жарков / Владимир Антоник
Screenplay by                            : Патрик Несс / Siobhan Dowd
Producer                                 : Белен Атьенса / Альваро Аугустин / Жислен Баруа
Production studio                        : Focus Features
Genre                                    : Drama
ContentType                              : Short Film
Description                              : Поражающая воображение история о мальчике Конноре и монстре из его снов. Когда Коннору особенно тяжело, происходит нечто невероятное - старое тисовое дерево за окном оживает и превращается в громадное чудовище. По ночам монстр рассказывает Коннору истории, которые помогут ему понять, что даже когда весь мир рушится, можно найти в себе силы и не отчаиваться.
Recorded date                            : UTC 2016-09-09 08:00:00
Encoded date                             : UTC 2017-03-12 22:18:43
Tagged date                              : UTC 2017-03-12 22:19:30
Copyright                                : © 2016 Focus Features. All Rights Reserved.
Cover                                    : Yes
Rating                                   : None
Title/Sort                               : Monster Calls
LongDescription                          : Поражающая воображение история о мальчике Конноре и монстре из его снов. Когда Коннору особенно тяжело, происходит нечто невероятное - старое тисовое дерево за окном оживает и превращается в громадное чудовище. По ночам монстр рассказывает Коннору истории, которые помогут ему понять, что даже когда весь мир рушится, можно найти в себе силы и не отчаиваться.
HDVideo                                  : Yes
AppleStoreCatalogID                      : 1187405049
Vendor                                   : Apple:vendor_id:2016-839600
ContentRating                            : mpaa|PG-13|300|

Video #1
ID                                       : 1
Format                                   : AVC
Format/Info                              : Advanced Video Codec
Format profile                           : High@L3.1
Format settings, CABAC                   : No
Format settings, ReFrames                : 3 frames
Codec ID                                 : avc1
Codec ID/Info                            : Advanced Video Coding
Duration                                 : 1h 48mn
Source duration                          : 1h 48mn
Bit rate                                 : 3 500 Kbps
Width                                    : 1 280 pixels
Height                                   : 544 pixels
Display aspect ratio                     : 2.35:1
Frame rate mode                          : Variable
Frame rate                               : 23.976 (24000/1001) fps
Minimum frame rate                       : 23.974 fps
Maximum frame rate                       : 23.981 fps
Color space                              : YUV
Chroma subsampling                       : 4:2:0
Bit depth                                : 8 bits
Scan type                                : Progressive
Bits/(Pixel*Frame)                       : 0.210
Stream size                              : 2.65 GiB (75%)
Source stream size                       : 2.65 GiB (75%)
Title                                    : Main Program
Writing library                          : x264 core 148 r2708 86b7198
Encoding settings                        : cabac=0 / ref=3 / deblock=1:-3:-3 / analyse=0x3:0x113 / me=umh / subme=9 / psy=1 / psy_rd=1.00:0.15 / mixed_ref=1 / me_range=32 / chroma_me=1 / trellis=0 / 8x8dct=1 / cqm=0 / deadzone=21,11 / fast_pskip=0 / chroma_qp_offset=-2 / threads=17 / lookahead_threads=1 / sliced_threads=0 / nr=0 / decimate=0 / interlaced=0 / bluray_compat=0 / constrained_intra=0 / bframes=3 / b_pyramid=0 / b_adapt=2 / b_bias=0 / direct=1 / weightb=0 / open_gop=0 / weightp=0 / keyint=240 / keyint_min=24 / scenecut=40 / intra_refresh=0 / rc_lookahead=40 / rc=2pass / mbtree=1 / bitrate=3500 / ratetol=1.0 / qcomp=0.65 / qpmin=0 / qpmax=69 / qpstep=4 / cplxblur=20.0 / qblur=0.5 / vbv_maxrate=9500 / vbv_bufsize=9500 / nal_hrd=none / filler=0 / ip_ratio=1.40 / aq=1:1.10
Language                                 : English
Encoded date                             : UTC 2017-03-12 22:18:43
Tagged date                              : UTC 2017-03-12 22:18:52
Color range                              : Limited
Color primaries                          : BT.709
Transfer characteristics                 : BT.709
Matrix coefficients                      : BT.709
Menus                                    : 8,9

Video #2
ID                                       : 9
Format                                   : JPEG
Codec ID                                 : jpeg
Duration                                 : 1h 48mn
Bit rate mode                            : Variable
Bit rate                                 : 392 bps
Width                                    : 640 pixels
Height                                   : 272 pixels
Display aspect ratio                     : 2.35:1
Frame rate mode                          : Variable
Frame rate                               : 0.002 fps
Minimum frame rate                       : 0.001 fps
Maximum frame rate                       : 0.003 fps
Color space                              : YUV
Chroma subsampling                       : 4:2:0
Bit depth                                : 8 bits
Compression mode                         : Lossy
Bits/(Pixel*Frame)                       : 1.126
Stream size                              : 311 KiB (0%)
Title                                    : Chapter Images
Language                                 : English
Default                                  : No
Encoded date                             : UTC 2017-03-12 22:18:56
Tagged date                              : UTC 2017-03-12 22:18:56
Menu For                                 : 1

Audio #1
ID                                       : 2
Format                                   : AAC
Format/Info                              : Advanced Audio Codec
Format profile                           : LC
Codec ID                                 : 40
Duration                                 : 1h 48mn
Bit rate mode                            : Variable
Bit rate                                 : 157 Kbps
Maximum bit rate                         : 222 Kbps
Channel(s)                               : 2 channels
Channel positions                        : Front: L R
Sampling rate                            : 48.0 KHz
Frame rate                               : 46.875 fps (1024 spf)
Compression mode                         : Lossy
Stream size                              : 122 MiB (3%)
Title                                    : Russian Stereo
Language                                 : Russian
Default                                  : Yes
Alternate group                          : 1
Encoded date                             : UTC 2017-03-12 22:18:44
Tagged date                              : UTC 2017-03-12 22:18:53
Fallback From                            : 4

Audio #2
ID                                       : 3
Format                                   : AAC
Format/Info                              : Advanced Audio Codec
Format profile                           : LC
Codec ID                                 : 40
Duration                                 : 1h 48mn
Bit rate mode                            : Variable
Bit rate                                 : 157 Kbps
Maximum bit rate                         : 259 Kbps
Channel(s)                               : 2 channels
Channel positions                        : Front: L R
Sampling rate                            : 48.0 KHz
Frame rate                               : 46.875 fps (1024 spf)
Compression mode                         : Lossy
Stream size                              : 122 MiB (3%)
Title                                    : English Stereo
Language                                 : English
Default                                  : No
Alternate group                          : 1
Encoded date                             : UTC 2017-03-12 22:18:44
Tagged date                              : UTC 2017-03-12 22:18:53
Fallback From                            : 5

Audio #3
ID                                       : 4
Format                                   : AC-3
Format/Info                              : Audio Coding 3
Format settings, Endianness              : Big
Codec ID                                 : ac-3
Duration                                 : 1h 48mn
Bit rate mode                            : Constant
Bit rate                                 : 384 Kbps
Channel(s)                               : 6 channels
Channel positions                        : Front: L C R, Side: L R, LFE
Sampling rate                            : 48.0 KHz
Frame rate                               : 31.250 fps (1536 spf)
Bit depth                                : 16 bits
Compression mode                         : Lossy
Stream size                              : 298 MiB (8%)
Title                                    : Russian DD 5.1
Language                                 : Russian
Service kind                             : Complete Main
Default                                  : Inherited From: 2
Alternate group                          : 1
Encoded date                             : UTC 2017-03-12 22:18:44
Tagged date                              : UTC 2017-03-12 22:18:53
Fallback To                              : 2

Audio #4
ID                                       : 5
Format                                   : AC-3
Format/Info                              : Audio Coding 3
Format settings, Endianness              : Big
Codec ID                                 : ac-3
Duration                                 : 1h 48mn
Bit rate mode                            : Constant
Bit rate                                 : 448 Kbps
Channel(s)                               : 6 channels
Channel positions                        : Front: L C R, Side: L R, LFE
Sampling rate                            : 48.0 KHz
Frame rate                               : 31.250 fps (1536 spf)
Bit depth                                : 16 bits
Compression mode                         : Lossy
Stream size                              : 347 MiB (10%)
Title                                    : English DD 5.1
Language                                 : English
Service kind                             : Complete Main
Default                                  : No
Alternate group                          : 1
Encoded date                             : UTC 2017-03-12 22:18:44
Tagged date                              : UTC 2017-03-12 22:18:53
Fallback To                              : 3

Text #1
ID                                       : 6
Format                                   : Timed Text
Muxing mode                              : sbtl
Codec ID                                 : tx3g
Duration                                 : 1h 37mn
Bit rate mode                            : Variable
Bit rate                                 : 75 bps
Stream size                              : 53.7 KiB (0%)
Title                                    : Russian full
Language                                 : Russian
Default                                  : Yes
Forced                                   : No
Alternate group                          : 2
Encoded date                             : UTC 2017-03-12 22:18:44
Tagged date                              : UTC 2017-03-12 22:18:52

Text #2
ID                                       : 7
Format                                   : Timed Text
Muxing mode                              : sbtl
Codec ID                                 : tx3g
Duration                                 : 1h 37mn
Bit rate mode                            : Variable
Bit rate                                 : 50 bps
Stream size                              : 35.6 KiB (0%)
Title                                    : English full
Language                                 : English
Default                                  : No
Forced                                   : No
Alternate group                          : 2
Encoded date                             : UTC 2017-03-12 22:18:44
Tagged date                              : UTC 2017-03-12 22:18:52

Menu #1
00:00:00.000                             : 00:00:00.000
00:08:12.701                             : 00:08:12.659
00:15:35.643                             : 00:15:35.601
00:24:41.563                             : 00:24:41.480
00:31:50.951                             : 00:31:50.909
00:38:50.703                             : 00:38:50.703
00:50:10.966                             : 00:50:10.925
00:55:48.178                             : 00:55:48.095
01:03:51.703                             : 01:03:51.661
01:13:11.679                             : 01:13:11.679
01:19:19.380                             : 01:19:19.296
01:28:52.536                             : 01:28:52.494
01:40:36.030                             : 01:40:36.030

Menu #2
ID                                       : 8
Codec ID                                 : text
Duration                                 : 1h 48mn
Language                                 : English
Encoded date                             : UTC 2017-03-12 22:18:53
Tagged date                              : UTC 2017-03-12 22:18:53
Bit rate mode                            : CBR
Menu For                                 : 1
00:00:00.000                             : 00:00:00.000
00:08:12.701                             : 00:08:12.659
00:15:35.643                             : 00:15:35.601
00:24:41.563                             : 00:24:41.480
00:31:50.951                             : 00:31:50.909
00:38:50.703                             : 00:38:50.703
00:50:10.966                             : 00:50:10.925
00:55:48.178                             : 00:55:48.095
01:03:51.703                             : 01:03:51.661
01:13:11.679                             : 01:13:11.679
01:19:19.380                             : 01:19:19.296
01:28:52.536                             : 01:28:52.494
01:40:36.030                             : 01:40:36.030

x264 лог

Код: выделить все

x264 [info]: frame I:1289  Avg QP:13.24  size:106250
x264 [info]: frame P:53343 Avg QP:15.65  size: 32345
x264 [info]: frame B:101346 Avg QP:16.56  size:  9656
x264 [info]: consecutive B-frames:  3.3% 18.7% 34.3% 43.7%
x264 [info]: mb I  I16..4:  7.2% 67.3% 25.5%
x264 [info]: mb P  I16..4:  0.9%  5.7%  2.1%  P16..4: 41.5% 30.3% 11.8%  0.0%  0.0%    skip: 7.6%
x264 [info]: mb B  I16..4:  0.1%  0.6%  0.2%  B16..8: 46.9% 15.8%  2.1%  direct: 4.0%  skip:30.3%  L0:44.1% L1:50.1% BI: 5.8%
x264 [info]: 8x8 transform intra:66.5% inter:41.9%
x264 [info]: coded y,uvDC,uvAC intra: 92.0% 76.8% 55.8% inter: 27.2% 17.5% 9.3%
x264 [info]: i16 v,h,dc,p: 37% 10%  8% 45%
x264 [info]: i8 v,h,dc,ddl,ddr,vr,hd,vl,hu:  8%  7%  6% 12% 16% 15% 14% 12% 11%
x264 [info]: i4 v,h,dc,ddl,ddr,vr,hd,vl,hu:  8%  7%  3% 13% 18% 16% 14% 11% 10%
x264 [info]: i8c dc,h,v,p: 55% 16% 18% 10%
x264 [info]: ref P L0: 67.5% 18.9% 13.6%
x264 [info]: ref B L0: 75.4% 24.6%
x264 [info]: kb/s:3493.50

Скриншоты:





Релиз подготовлен для просмотра на Apple TV, iPad, iPhone, iPod Touch.
Для просмотра данного релиза на компьютере с ОС Windows рекомендуется использовать VLC media player

Смотреть Online

Детали торрента:
Название:Голос монстра / A Monster Calls (2016) BDRip [720p] ATV
Дата добавления:13 Мар 2017 01:39:19
Размер:3,52 GB
Раздают:1
Качают:0
Форум:Зарубежное видео HD для устройств Apple

All rights reserved © 2015-2019