TORRENTS45.XYZ

Скачать Аркадий Кобяков - Ветерок (2015) [FLAC|Lossless|image + .cue] <Шансон>


Аркадий Кобяков - Ветерок (2015)
Жанр: Шансон
Продолжительность: 00:52:54

Кодек: FLAC
Битрейт: Lossless
Тип рипа: image + .cue

Треклист:
01. Всё позади
02. Тысячи планет
03. Ветерок
04. Некуда бежать
05. Я не забуду
06. Такая как лёд
07. Мерцание звёзд
08. Уйду на рассвете
09. Я лишь прохожий
10. Девчонка у реки
11. На шансоне
12. Если любишь ты

Отчёт EAC:


Exact Audio Copy V1.0 beta 4 from 7. December 2014

Отчёт EAC об извлечении, выполненном 19. февраля 2017, 17:09

Аркадий Кобяков / Ветерок

Дисковод: HL-DT-STDVDRAM GU71N Adapter: 1 ID: 0

Режим чтения : Достоверность
Использование точного потока : Да
Отключение кэша аудио : Да
Использование указателей C2 : Нет

Коррекция смещения при чтении : 6
Способность читать области Lead-in и Lead-out : Нет
Заполнение пропущенных сэмплов тишиной : Да
Удаление блоков с тишиной в начале и конце : Нет
При вычислениях CRC использовались нулевые сэмплы : Да
Интерфейс : Встроенный Win32-интерфейс для Win NT/2000

Выходной формат : Пользовательский кодировщик
Выбранный битрейт : 128 kBit/s
Качество : Высокий
Добавление ID3-тега : Нет
Утилита сжатия : C:\Program Files\Exact Audio Copy\Flac\flac.exe
Дополнительные параметры : -V -8 -T "Date=%year%" -T "Genre=%genre%" %source%

TOC извлечённого CD

Трек | Старт | Длительность | Начальный сектор | Конечный сектор
---------------------------------------------------------------------
1 | 0:00.00 | 4:42.59 | 0 | 21208
2 | 4:42.59 | 3:41.17 | 21209 | 37800
3 | 8:24.01 | 3:54.06 | 37801 | 55356
4 | 12:18.07 | 4:51.09 | 55357 | 77190
5 | 17:09.16 | 4:36.32 | 77191 | 97922
6 | 21:45.48 | 4:44.23 | 97923 | 119245
7 | 26:29.71 | 3:57.55 | 119246 | 137075
8 | 30:27.51 | 4:16.04 | 137076 | 156279
9 | 34:43.55 | 4:16.11 | 156280 | 175490
10 | 38:59.66 | 3:20.01 | 175491 | 190491
11 | 42:19.67 | 3:31.66 | 190492 | 206382
12 | 45:51.58 | 7:02.41 | 206383 | 238073

Характеристики диапазона извлечения и сообщения об ошибках

Выбранный диапазон

Имя файла E:\shansonchik\Аркадий Кобяков - Ветерок.wav

Пиковый уровень 96.6 %
Скорость извлечения 4.8 X
Качество диапазона 100.0 %
CRC теста 9D307D2C
CRC копии 9D307D2C
Копирование... OK

Ошибок не произошло

Конец отчёта

==== Контрольная сумма отчёта 4820140E19217F150AF24E77472C92BF037EC0D6519AFB40042D88B9E73DB984 ====

Отчёт auCDtect Task manager:


-----------------------

DON'T MODIFY THIS FILE

-----------------------

PERFORMER: auCDtect Task Manager, ver. 1.6.0 RC1 build 1.6.0.1
Copyright (c) 2008-2010 y-soft. All rights reserved
http://y-soft.org

ANALYZER: auCDtect: CD records authenticity detector, version 0.8.2
Copyright (c) 2004 Oleg Berngardt. All rights reserved.
Copyright (c) 2004 Alexander Djourik. All rights reserved.

FILE: Аркадий Кобяков - Ветерок.flac
Size: 387022106 Hash: C8A3A8342CA8F29F1C61E2E4CF624809 Accuracy: -m0
Conclusion: MPEG 95%
Signature: F7CA62286ACFF37B283AFDC6C1481F4B10E8A32D

Спектрограмма:



YouTube




Поглощение/вытеснение
Только с согласия релизера

gvm55

Детали торрента:
Название:Аркадий Кобяков - Ветерок (2015) [FLAC|Lossless|image + .cue] <Шансон>
Дата добавления:11 Мар 2017 10:15:55
Размер:386 MB
Раздают:2
Качают:0
Форум:Русский Шансон (Lossless)

All rights reserved © 2015-2018