TORRENTS45.XYZ

Скачать Аркадий Кобяков - С душой наедине (2013) [FLAC|Lossless|image + .cue] <Шансон>


Аркадий Кобяков - С душой наедине (2013)
Жанр: Шансон
Продолжительность: 01:15:12

Кодек: FLAC
Битрейт: Lossless
Тип рипа: image + .cue

Треклист:
01. Душа моя
02. Любовь моя, как лебедь белая
03. А над лагерем ночь
04. Весенний дождь
05. Девчонка у реки
06. Скрипач
07. Арестантская душа
08. Ветер унесёт
09. Другая жизнь
10. Больно
11. Если бы знать
12. Прочь
13. Некуда бежать
14. Сердца крик
15. По этапу
16. Русь
17. Ой, Мороз, Мороз... У дяди Славы

Отчёт EAC:


Exact Audio Copy V1.0 beta 4 from 7. December 2014

Отчёт EAC об извлечении, выполненном 15. февраля 2017, 18:06

Аркадий Кобяков / С душой наедине

Дисковод: HL-DT-STDVDRAM GU71N Adapter: 1 ID: 0

Режим чтения : Достоверность
Использование точного потока : Да
Отключение кэша аудио : Да
Использование указателей C2 : Нет

Коррекция смещения при чтении : 6
Способность читать области Lead-in и Lead-out : Нет
Заполнение пропущенных сэмплов тишиной : Да
Удаление блоков с тишиной в начале и конце : Нет
При вычислениях CRC использовались нулевые сэмплы : Да
Интерфейс : Встроенный Win32-интерфейс для Win NT/2000

Выходной формат : Пользовательский кодировщик
Выбранный битрейт : 128 kBit/s
Качество : Высокий
Добавление ID3-тега : Нет
Утилита сжатия : C:\Program Files\Exact Audio Copy\Flac\flac.exe
Дополнительные параметры : -V -8 -T "Date=%year%" -T "Genre=%genre%" %source%

TOC извлечённого CD

Трек | Старт | Длительность | Начальный сектор | Конечный сектор
---------------------------------------------------------------------
1 | 0:00.00 | 5:00.19 | 0 | 22518
2 | 5:00.19 | 6:05.71 | 22519 | 49964
3 | 11:06.15 | 4:01.21 | 49965 | 68060
4 | 15:07.36 | 4:06.74 | 68061 | 86584
5 | 19:14.35 | 3:14.24 | 86585 | 101158
6 | 22:28.59 | 3:52.18 | 101159 | 118576
7 | 26:21.02 | 4:35.22 | 118577 | 139223
8 | 30:56.24 | 3:20.00 | 139224 | 154223
9 | 34:16.24 | 3:15.47 | 154224 | 168895
10 | 37:31.71 | 4:42.17 | 168896 | 190062
11 | 42:14.13 | 5:14.59 | 190063 | 213671
12 | 47:28.72 | 6:25.60 | 213672 | 242606
13 | 53:54.57 | 5:16.70 | 242607 | 266376
14 | 59:11.52 | 5:45.51 | 266377 | 292302
15 | 64:57.28 | 3:53.17 | 292303 | 309794
16 | 68:50.45 | 3:36.13 | 309795 | 326007
17 | 72:26.58 | 2:45.63 | 326008 | 338445

Характеристики диапазона извлечения и сообщения об ошибках

Выбранный диапазон

Имя файла E:\shansonchik\Аркадий Кобяков - С душой наедине.wav

Пиковый уровень 100.0 %
Скорость извлечения 5.0 X
Качество диапазона 99.9 %
CRC теста CF4976FD
CRC копии CF4976FD
Копирование... OK

Ошибок не произошло

Конец отчёта

==== Контрольная сумма отчёта 1D141DA3AAF3772919778F4D8E301F8F693FCB0B4BA3DAAA1806B6F160AB4F07 ====

Отчёт auCDtect Task manager:


-----------------------

DON'T MODIFY THIS FILE

-----------------------

PERFORMER: auCDtect Task Manager, ver. 1.6.0 RC1 build 1.6.0.1
Copyright (c) 2008-2010 y-soft. All rights reserved
http://y-soft.org

ANALYZER: auCDtect: CD records authenticity detector, version 0.8.2
Copyright (c) 2004 Oleg Berngardt. All rights reserved.
Copyright (c) 2004 Alexander Djourik. All rights reserved.

FILE: Аркадий Кобяков - С душой наедине.flac
Size: 530473974 Hash: 510B8E96F870987C44DF17CC46AF34B5 Accuracy: -m0
Conclusion: MPEG 95%
Signature: FA906CD7F25E6142949F03F67C6C6B7CBABE8F28

Спектрограмма:



YouTube




Поглощение/вытеснение
Только с согласия релизера

gvm55

Детали торрента:
Название:Аркадий Кобяков - С душой наедине (2013) [FLAC|Lossless|image + .cue] <Шансон>
Дата добавления:09 Мар 2017 13:45:42
Размер:525 MB
Раздают:2
Качают:0
Форум:Русский Шансон (Lossless)

All rights reserved © 2015-2018