TORRENTS45.XYZ

Скачать Повторная свадьба (1975) TVRip [H.264]


Повторная свадьба (1975) TVRip [H.264]
Производство: Мосфильм
Жанр: Мелодрама, Драма

Режиссер: Георгий Натансон
Актеры: Зинаида Дехтярёва, Андрей Миронов, Ирина Калиновская, Людмила Макарова, Михаил Кузнецов, Наталья Егорова, Марина Дюжева, Игорь Костолевский, Всеволод Сафонов, Леонид Куравлёв, Станислав Чекан, Борислав Брондуков

Описание:
Молодой мужчина — интеллигентный, спокойный, рассудительный и с большим чувством юмора, проживший более пяти лет в счастливом браке, — встречает на улице молодую девушку и уходит из семьи. Однако очень скоро возвращается…



Продолжительность: 01:25:33
Качество видео: TVRip

Видео: AVC/H.264, 700x376@827x376, ~1576 kbps
Аудио: MP3, 1 ch, 128 kbps

Mediainfo:


Общее
Уникальный идентификатор : 244904660309530757483056711118300660477 (0xB83EEC0064D8D0F6AA428D7EA7EC42FD)
Полное имя : D:\Повторная свадьба (1975) TVRip.mkv
Формат : Matroska
Версия формата : Version 4 / Version 2
Размер файла : 1,02 Гбайт
Продолжительность : 1 ч. 25 м.
Общий поток : 1706 Кбит/сек
Дата кодирования : UTC 2017-02-17 19:07:13
Программа кодирования : mkvmerge v9.8.0 ('Kuglblids') 64bit
Библиотека кодирования : libebml v1.3.4 + libmatroska v1.4.5

Видео
Идентификатор : 1
Формат : AVC
Формат/Информация : Advanced Video Codec
Профиль формата : High@L4.1
Параметр CABAC формата : Да
Параметр ReFrames формата : 4 кадра
Идентификатор кодека : V_MPEG4/ISO/AVC
Продолжительность : 1 ч. 25 м.
Битрейт : 1576 Кбит/сек
Ширина : 700 пикселей
Высота : 376 пикселей
Соотношение сторон : 2,2:1
Соотношение сторон в оригинале : 2,2:1
Режим частоты кадров : Постоянный
Частота кадров : 25,000 кадров/сек
Цветовое пространство : YUV
Субдискретизация насыщенности : 4:2:0
Битовая глубина : 8 бит
Тип развёртки : Прогрессивная
Бит/(Пиксели*Кадры) : 0.240
Размер потока : 965 Мбайт (92%)
Библиотека кодирования : x264 core 148 r2638 7599210
Настройки программы : cabac=1 / ref=3 / deblock=1:-1:-1 / analyse=0x3:0x113 / me=hex / subme=7 / psy=1 / psy_rd=1.00:0.15 / mixed_ref=1 / me_range=16 / chroma_me=1 / trellis=1 / 8x8dct=1 / cqm=0 / deadzone=21,11 / fast_pskip=1 / chroma_qp_offset=-3 / threads=8 / lookahead_threads=1 / sliced_threads=0 / nr=0 / decimate=1 / interlaced=0 / bluray_compat=0 / constrained_intra=0 / bframes=3 / b_pyramid=2 / b_adapt=2 / b_bias=0 / direct=1 / weightb=1 / open_gop=0 / weightp=2 / keyint=250 / keyint_min=25 / scenecut=40 / intra_refresh=0 / rc_lookahead=40 / rc=2pass / mbtree=1 / bitrate=1576 / ratetol=1.0 / qcomp=0.60 / qpmin=0 / qpmax=41 / qpstep=4 / cplxblur=20.0 / qblur=0.5 / vbv_maxrate=62500 / vbv_bufsize=78125 / nal_hrd=none / filler=0 / ip_ratio=1.40 / aq=1:1.00
Default : Да
Forced : Нет

Аудио
Идентификатор : 2
Формат : MPEG Audio
Версия формата : Version 1
Профиль формата : Layer 3
Идентификатор кодека : A_MPEG/L3
Идентификатор кодека/Подсказка : MP3
Продолжительность : 1 ч. 25 м.
Вид битрейта : Постоянный
Битрейт : 128 Кбит/сек
Каналы : 1 канал
Частота : 48,0 КГц
Частота кадров : 41,667 кадра/сек (1152 spf)
Метод сжатия : С потерями
Размер потока : 78,3 Мбайт (8%)
Default : Да
Forced : Нет
Скриншоты:

Дополнительные скриншоты:





Все одноименные релизы в Клубе
Детали торрента:
Название:Повторная свадьба (1975) TVRip [H.264]
Дата добавления:23 Фев 2017 22:52:43
Размер:1,02 GB
Раздают:1
Качают:0
Форум:Старые Отечественные Фильмы (HD*Rip/LQ, DVDRip, SATRip, VHSRip)

All rights reserved © 2015-2018