TORRENTS45.XYZ

Скачать Майлз с другой планеты / Miles from Tomorrowland (2016) SatRip (Сезон 2, серий 17 из 25) [Обновляемая]


Майлз с другой планеты / Miles from Tomorrowland (2016) SATRip (Сезон 2, серий 17 из 25) [Обновляемая]
Производство: США/ Disney Junior
Жанр: Семейный, Приключения

Режиссер: Джон Энг, Мишель Кенни
Актеры: Владимир Войтюк, Василиса Эльдарова, Даниил Эльдаров

Описание:
Знакомьтесь с юным любителем приключений Майлзом Каллисто и его необычной семьей! Мама парнишки — пилот космического корабля, папа — инженер-механик, а старшая сестра — настоящая всезнайка в области различных технологий. Вместе с ними и домашним питомцем, роботом-страусом Мёрком, Майлз путешествует по просторам вселенной и исследует неизведанные миры. В эпизодах познавательного мультсериала юных телезрителей ждут удивительные открытия!


Дата мировой премьеры: 6 февраля 2015
Дата премьеры в России: 5 сентября 2015
Дата выхода DVD/Blu-ray релиза: 4 августа 2015, «Уолт Дисней Компани СНГ»

Возраст: 0+ (для любой зрительской аудитории)
Рейтинг MPAA: G (нет возрастных ограничений)

Качество видео: SATRip
Перевод: Дублированный

Продолжительность: ~ 00:23:02 серия
Видео: Xvid, 704х400, (16:9) ~2 421 Kbps
Аудио: MP3, 2 ch, 192 Kbps

Mediainfo:


General
Format : AVI
Format/Info : Audio Video Interleave
File size : 432 MiB
Duration : 23mn 2s
Overall bit rate : 2 622 Kbps
Writing library : VirtualDub build 35491/release

Video
ID : 0
Format : MPEG-4 Visual
Format profile : Advanced Simple@L5
Format settings, BVOP : 2
Format settings, QPel : No
Format settings, GMC : No warppoints
Format settings, Matrix : Default (H.263)
Muxing mode : Packed bitstream
Codec ID : XVID
Codec ID/Hint : XviD
Duration : 23mn 2s
Bit rate : 2 421 Kbps
Width : 704 pixels
Height : 400 pixels
Display aspect ratio : 16:9
Frame rate : 25.000 fps
Color space : YUV
Chroma subsampling : 4:2:0
Bit depth : 8 bits
Scan type : Progressive
Compression mode : Lossy
Bits/(Pixel*Frame) : 0.344
Stream size : 399 MiB (92%)
Writing library : XviD 64

Audio
ID : 1
Format : MPEG Audio
Format version : Version 1
Format profile : Layer 3
Mode : Joint stereo
Codec ID : 55
Codec ID/Hint : MP3
Duration : 23mn 2s
Bit rate mode : Constant
Bit rate : 192 Kbps
Channel(s) : 2 channels
Sampling rate : 48.0 KHz
Compression mode : Lossy
Stream size : 31.6 MiB (7%)
Alignment : Split accross interleaves
Interleave, duration : 40 ms (1.00 video frame)
Interleave, preload duration : 500 ms

Спилок серий:

01-Какпитан Маилс-В поисках друга.avi
02-Громкий тихий час-Астроспелеологи.avi
03-Создаём робозверька-День профессий.avi
04-Галопом землетрясителей-Поход робопингвинов.avi
05-Приключения джета ретрограда-крошечные инопланетяне.avi
06-День конструктора-Стая сумасшедших бит.avi
07-Похищение сферы-Спасти адмиралов.avi
08-Квест галаксиас-Путешествие на солнце.avi
09-Первый день в галактической школе-Майлз в подводном плавании.avi
10-Галактическая ярмарка-Попытка бегства.avi
11-И снова на взлёт-Мёрк-лунатик.avi
12-Космические мусорщики-На помощь Джет ретроград.avi
13-Короткое замыкание в блоппсбурге-Похититель роботов.avi
14-Преодолевая препятствия-Спасите люмаро.avi
15-Грабитель слит-Флот сила.av
16-Лагуна синей луны-Дилемма королевы джеммы.avi
17-Загадка динозавров.avi
Скриншоты:


Все одноименные релизы в Клубе

Смотреть Online

http://moonwalk.cc/serial/a7295768df74f902d603d85e37ba7f2a/iframe
Детали торрента:
Название:Майлз с другой планеты / Miles from Tomorrowland (2016) SatRip (Сезон 2, серий 17 из 25) [Обновляемая]
Дата добавления:26 Май 2017 09:02:45
Размер:7,14 GB
Раздают:8
Качают:2
Форум:Зарубежные Мультсериалы

All rights reserved © 2015-2018