TORRENTS45.XYZ

Скачать Tiziana Ghiglioni - Sings Gaslini (1995) Soul Note[FLAC|Lossless|image + .cue] <Vocal Jazz>


Tiziana Ghiglioni - Sings Gaslini (1995) Soul Note
Год: 1995
Жанр: Vocal Jazz
Издание: Soul Note - 121297
Продолжительность: 00:47:06

Кодек: FLAC (image+.cue)
Битрейт: Lossless
Источник (релизер): SКА
Наличие сканов в содержимом раздачи: нет

Треклист:

01.Mingus Memory [04:17]
02.Forse Sei Tu? [03:09]
03.Fellini Song [04:01]
04.Canto alto [03:58]
05.Fiori [02:28]
06.Lady Solitude [03:40]
07.Virtuale o Attuale [02:10]
08.Pose De La Voix [03:36]
09.Ariablu [04:43]
10.E Quasi Mezzanotte, Mister Monk [03:12]
11.The Cats All Showed [03:34]
12.Presentazione [00:57]
13.Appointment in New Orleans [05:14]
14.Millacamilla [02:00]

Отчёт EAC:


Exact Audio Copy V0.99 prebeta 5 from 4. May 2009

EAC extraction logfile from 22. January 2011, 18:20

Tiziana Ghiglioni / Tiziana Ghiglioni Sings Gaslini

Used drive : HL-DT-STDVDRAM GSA-H10A Adapter: 0 ID: 0

Read mode : Secure
Utilize accurate stream : Yes
Defeat audio cache : Yes
Make use of C2 pointers : No

Read offset correction : 667
Overread into Lead-In and Lead-Out : No
Fill up missing offset samples with silence : Yes
Delete leading and trailing silent blocks : No
Null samples used in CRC calculations : Yes
Used interface : Native Win32 interface for Win NT & 2000

Used output format : User Defined Encoder
Selected bitrate : 128 kBit/s
Quality : High
Add ID3 tag : No
Command line compressor : C:\Program Files (x86)\Exact Audio Copy\FLAC\FLAC.EXE
Additional command line options : -8 -V %s

TOC of the extracted CD

Track | Start | Length | Start sector | End sector
---------------------------------------------------------
1 | 0:00.33 | 4:17.35 | 33 | 19342
2 | 4:17.68 | 3:09.02 | 19343 | 33519
3 | 7:26.70 | 4:01.53 | 33520 | 51647
4 | 11:28.48 | 3:58.60 | 51648 | 69557
5 | 15:27.33 | 2:28.25 | 69558 | 80682
6 | 17:55.58 | 3:40.70 | 80683 | 97252
7 | 21:36.53 | 2:10.20 | 97253 | 107022
8 | 23:46.73 | 3:36.57 | 107023 | 123279
9 | 27:23.55 | 4:43.03 | 123280 | 144507
10 | 32:06.58 | 3:12.20 | 144508 | 158927
11 | 35:19.03 | 3:34.67 | 158928 | 175044
12 | 38:53.70 | 0:57.38 | 175045 | 179357
13 | 39:51.33 | 5:14.50 | 179358 | 202957
14 | 45:06.08 | 2:00.25 | 202958 | 211982

Range status and errors

Selected range

Filename C:\Users\blasto\Documents\Tiziana Ghiglioni - Tiziana Ghiglioni Sings Gaslini.wav

Peak level 100.0 %
Range quality 100.0 %
Test CRC E0C4E248
Copy CRC E0C4E248
Copy OK

No errors occurred

AccurateRip summary

Track 1 not present in database
Track 2 not present in database
Track 3 not present in database
Track 4 not present in database
Track 5 not present in database
Track 6 not present in database
Track 7 not present in database
Track 8 not present in database
Track 9 not present in database
Track 10 not present in database
Track 11 not present in database
Track 12 not present in database
Track 13 not present in database
Track 14 not present in database

None of the tracks are present in the AccurateRip database

End of status report

Cue Sheet (.cue):


REM GENRE Jazz
REM DATE 1995
REM DISCID D00B0A0E
REM COMMENT "ExactAudioCopy v0.99pb5"
PERFORMER "Tiziana Ghiglioni"
TITLE "Tiziana Ghiglioni Sings Gaslini"
FILE "Tiziana Ghiglioni - Tiziana Ghiglioni Sings Gaslini.flac" WAVE
TRACK 01 AUDIO
TITLE "Mingus Memory"
PERFORMER "Tiziana Ghiglioni"
INDEX 00 00:00:00
INDEX 01 00:00:33
TRACK 02 AUDIO
TITLE "Forse sei tu?"
PERFORMER "Tiziana Ghiglioni"
INDEX 01 04:17:68
TRACK 03 AUDIO
TITLE "Fellini Song"
PERFORMER "Tiziana Ghiglioni"
INDEX 01 07:26:70
TRACK 04 AUDIO
TITLE "Canto alto"
PERFORMER "Tiziana Ghiglioni"
INDEX 01 11:28:48
TRACK 05 AUDIO
TITLE "Fiori"
PERFORMER "Tiziana Ghiglioni"
INDEX 01 15:27:33
TRACK 06 AUDIO
TITLE "Lady Solitude"
PERFORMER "Tiziana Ghiglioni"
INDEX 01 17:55:58
TRACK 07 AUDIO
TITLE "Virtuale o attuale"
PERFORMER "Tiziana Ghiglioni"
INDEX 01 21:36:53
TRACK 08 AUDIO
TITLE "Pose de la voix"
PERFORMER "Tiziana Ghiglioni"
INDEX 01 23:46:73
TRACK 09 AUDIO
TITLE "Ariablu"
PERFORMER "Tiziana Ghiglioni"
INDEX 01 27:23:55
TRACK 10 AUDIO
TITLE "E Quasi Mezzanotte, Mister Monk"
PERFORMER "Tiziana Ghiglioni"
INDEX 01 32:06:58
TRACK 11 AUDIO
TITLE "The Cats All Showed"
PERFORMER "Tiziana Ghiglioni"
INDEX 01 35:19:03
TRACK 12 AUDIO
TITLE "Presentazione"
PERFORMER "Tiziana Ghiglioni"
INDEX 01 38:53:70
TRACK 13 AUDIO
TITLE "Appointment in New Orleans"
PERFORMER "Tiziana Ghiglioni"
INDEX 01 39:51:33
TRACK 14 AUDIO
TITLE "Millacamilla"
PERFORMER "Tiziana Ghiglioni"
INDEX 01 45:06:08

Отчёт auCDtect Task manager:


-----------------------

DON'T MODIFY THIS FILE

-----------------------

PERFORMER: auCDtect Task Manager, ver. 1.6.0 RC1 build 1.6.0.1
Copyright (c) 2008-2010 y-soft. All rights reserved
http://y-soft.org

ANALYZER: auCDtect: CD records authenticity detector, version 0.8.2
Copyright (c) 2004 Oleg Berngardt. All rights reserved.
Copyright (c) 2004 Alexander Djourik. All rights reserved.

FILE: Tiziana Ghiglioni - Tiziana Ghiglioni Sings Gaslini.flac
Size: 247586414 Hash: E8FFE3D3574C05C134B9ACD9499A3022 Accuracy: -m0
Conclusion: CDDA 99%
Signature: FF46750103A5AA8635159B45D549F24F7A5E5274

Состав

Tiziana Ghiglioni поет в сопровождении струнного квартета, баса и арфы.
Детали торрента:
Название:Tiziana Ghiglioni - Sings Gaslini (1995) Soul Note[FLAC|Lossless|image + .cue] <Vocal Jazz>
Дата добавления:18 Янв 2017 09:52:27
Размер:236 MB
Раздают:1
Качают:0
Форум:Jazz (Lossless)

All rights reserved © 2015-2018