TORRENTS45.XYZ

Скачать Инферно / Inferno (2016) BDRip [H.264/720p]


Инферно / Inferno (2016) BDRip [H.264/720p]
« Every clue will take him deeper »

Производство: США, Венгрия / Columbia Pictures, Imagine Entertainment
Жанр: Боевик, Триллер, Драма, Криминал, Детектив, Приключения

Режиссер: Рон Ховард
Актеры: Том Хэнкс, Фелисити Джонс, Омар Си, Ирфан Кхан, Сидсе Бабетт Кнудсен, Бен Фостер, Ана Улару, Ида Дарвиш, Фаусто Мария Шиараппа, Винченцо Танасси

Описание: Профессор Роберт Лэнгдон приходит в сознание в одной из итальянских больниц, полностью потеряв память. Местный врач Сиенна Брукс пытается помочь Роберту не только восстановить воспоминания, но и остановить загадочных злоумышленников, которые намерены распространить смертоносный вирус. Разгадка таинственной истории связана с «Адом» (ит. Inferno) - первой частью «Божественной комедии» Данте.


Возраст: 16+ (зрителям, достигшим 16 лет)
Рейтинг MPAA: PG-13 (детям до 13 лет просмотр нежелателен)
Дата мировой премьеры: 8 октября 2016
Дата российской премьеры: 13 октября 2016, «WDSSPR»

Продолжительность: 02:01:35
Качество видео: BDRip
Перевод: Дублированный (Blu-ray CEE)
Вид субтитров: Вшитые, отключаемые
Язык субтитров: Русский (Forced, Full), Английский

Видео: AVC/H.264, 9848 Kbps, 1280x692
Аудио 1: AC3, 5.1, 640 Kbps - Русский (DUB, Blu-ray CEE)
Аудио 2: DTS, 5.1, 1509 Kbps - Английский (Оригинал)

MediaInfo

Код: выделить все

Общее
Полное имя                               : Inferno.mkv
Формат                                   : Matroska
Версия формата                           : Version 1
Размер файла                             : 10,4 Гбайт
Продолжительность                        : 2 ч. 1 м.
Общий поток                              : 12,2 Мбит/сек
Дата кодирования                         : UTC 2017-01-17 23:04:27
Программа кодирования                    : mkvmerge v2.4.1 ('Use Me') built on Dec  5 2008 18:30:05
Библиотека кодирования                   : libebml v0.7.7 + libmatroska v0.8.1

Видео
Идентификатор                            : 1
Формат                                   : AVC
Формат/Информация                        : Advanced Video Codec
Профиль формата                          : High@L4.1
Параметр CABAC формата                   : Да
Параметр ReFrames формата                : 9 кадров
Идентификатор кодека                     : V_MPEG4/ISO/AVC
Продолжительность                        : 2 ч. 1 м.
Битрейт                                  : 9848 Кбит/сек
Ширина                                   : 1280 пикселей
Высота                                   : 692 пикселя
Соотношение сторон                       : 1,85:1
Режим частоты кадров                     : Постоянный
Частота кадров                           : 23,976 (24000/1001) кадра/сек
Цветовое пространство                    : YUV
Субдискретизация насыщенности            : 4:2:0
Битовая глубина                          : 8 бит
Тип развёртки                            : Прогрессивная
Бит/(Пиксели*Кадры)                      : 0.464
Размер потока                            : 8,36 Гбайт (80%)
Заголовок                                : Инферно (2016)
Библиотека кодирования                   : x264 core 148 r2744kMod b97ae06
Настройки программы                      : cabac=1 / ref=9 / deblock=1:-3:-3 / analyse=0x3:0x133 / me=umh / subme=10 / psy=1 / fade_compensate=0.00 / psy_rd=1.00:0.00 / mixed_ref=1 / me_range=24 / chroma_me=1 / trellis=2 / 8x8dct=1 / cqm=0 / deadzone=21,11 / fast_pskip=0 / chroma_qp_offset=-2 / threads=56 / lookahead_threads=5 / sliced_threads=0 / nr=0 / decimate=0 / interlaced=0 / bluray_compat=0 / constrained_intra=0 / bframes=7 / b_pyramid=2 / b_adapt=2 / b_bias=0 / direct=3 / weightb=1 / open_gop=0 / weightp=2 / keyint=250 / keyint_min=23 / scenecut=40 / intra_refresh=0 / rc_lookahead=60 / rc=crf / mbtree=0 / crf=16.5000 / qcomp=0.60 / qpmin=0 / qpmax=69 / qpstep=4 / vbv_maxrate=62500 / vbv_bufsize=78125 / crf_max=0.0 / nal_hrd=none / filler=0 / ip_ratio=1.30 / pb_ratio=1.20 / aq=3:0.80
Язык                                     : English
Default                                  : Да
Forced                                   : Нет

Аудио #1
Идентификатор                            : 2
Формат                                   : AC-3
Формат/Информация                        : Audio Coding 3
Расширение режима                        : CM (complete main)
Параметр Endianness формата              : Big
Идентификатор кодека                     : A_AC3
Продолжительность                        : 2 ч. 1 м.
Вид битрейта                             : Постоянный
Битрейт                                  : 640 Кбит/сек
Каналы                                   : 6 каналов
Расположение каналов                     : Front: L C R, Side: L R, LFE
Частота                                  : 48,0 КГц
Частота кадров                           : 31,250 кадров/сек (1536 spf)
Битовая глубина                          : 16 бит
Метод сжатия                             : С потерями
Размер потока                            : 557 Мбайт (5%)
Заголовок                                : AC3 (Дублированный) Blu-ray CEE
Язык                                     : Russian
Default                                  : Да
Forced                                   : Нет

Аудио #2
Идентификатор                            : 3
Формат                                   : DTS
Формат/Информация                        : Digital Theater Systems
Режим                                    : 16
Параметр Endianness формата              : Big
Идентификатор кодека                     : A_DTS
Продолжительность                        : 2 ч. 1 м.
Вид битрейта                             : Постоянный
Битрейт                                  : 1509 Кбит/сек
Каналы                                   : 6 каналов
Расположение каналов                     : Front: L C R, Side: L R, LFE
Частота                                  : 48,0 КГц
Частота кадров                           : 93,750 кадра/сек (512 spf)
Битовая глубина                          : 16 бит
Метод сжатия                             : С потерями
Размер потока                            : 1,28 Гбайт (12%)
Заголовок                                : DTS (Оригинал)
Язык                                     : English
Default                                  : Нет
Forced                                   : Нет

Текст #1
Идентификатор                            : 4
Формат                                   : UTF-8
Идентификатор кодека                     : S_TEXT/UTF8
Идентификатор кодека/Информация          : UTF-8 Plain Text
Заголовок                                : Русские (Форсированные)
Язык                                     : Russian
Default                                  : Да
Forced                                   : Нет

Текст #2
Идентификатор                            : 5
Формат                                   : UTF-8
Идентификатор кодека                     : S_TEXT/UTF8
Идентификатор кодека/Информация          : UTF-8 Plain Text
Заголовок                                : Русские
Язык                                     : Russian
Default                                  : Нет
Forced                                   : Нет

Текст #3
Идентификатор                            : 6
Формат                                   : UTF-8
Идентификатор кодека                     : S_TEXT/UTF8
Идентификатор кодека/Информация          : UTF-8 Plain Text
Заголовок                                : Английские
Язык                                     : English
Default                                  : Нет
Forced                                   : Нет

Дополнительная информация

» Фильм снят по одноименному роману Дэна Брауна, который является четвертой по счету книгой о похождениях Роберта Лэнгдона.
» Третье появление Тома Хэнкса на экране в роли Роберта Лэнгдона после работы в фильмах режиссёра Рона Ховарда «Код Да Винчи» (2006) и «Ангелы и Демоны» (2009). Режиссёром фильма «Инферно» (2016) тоже стал Ховард.
» 13 июля 2013 года кинокомпания «Sony Pictures» запланировала выход фильма «Инферно» на 18 декабря 2015 года. Позже стало известно, что 14 декабря 2015 года на экраны выйдет «Звёздные войны: Пробуждение силы», и премьера «Инферно» была перенесена на октябрь 2016 года.
» Поначалу Рону Ховарду не хотелось снимать очередной фильм по роману Дэна Брауна о профессоре Роберте Лэнгдоне. Он решил остаться в творческом коллективе фильма «Утраченный символ» в качестве продюсера. Режиссёром был назначен Марк Романек, а главная роль снова досталась Тому Хэнксу. Браун между тем выпустил четвёртый роман под названием «Инферно», и студия положила проект «Утраченный символ» на полку, обосновывая своё решение якобы сходством его сюжета и общей идеи с приключенческим фильмом Джона Тёртелтауба «Сокровище нации» (2004). Руководство студии решило снять фильм по четвёртому роману Брауна с Хэнксом в главной роли. За режиссуру фильма «Инферно» взялся Ховард. Что же касается экранизации «Утраченного символа», этот проект так и находится в подвешенном состоянии, и его дальнейшая судьба неизвестна.
» Во время выездных съёмок рабочим названием фильма было «Головная боль», возможно, из-за контузии, которую Роберт Лэнгдон получил в самом начале описываемых событий.
Скриншоты:

Все релизы "Инферно / Inferno" на Torrents45.xyz

Смотреть Online

http://moonwalk.cc/video/2eacfefbf0fd3218/iframe
Детали торрента:
Название:Инферно / Inferno (2016) BDRip [H.264/720p]
Дата добавления:18 Янв 2017 02:09:45
Размер:10,4 GB
Раздают:5
Качают:0
Форум:Зарубежные Фильмы (HD, UHD-LQ)

All rights reserved © 2015-2018