TORRENTS45.XYZ

Скачать VA - 10 песен о любви (2004) бесплатное приложение к журналу Yes! [FLAC|Lossless|image + .cue] <Pop, Rock>


VA - 10 песен о любви (2004) бесплатное приложение к журналу Yes!
Год: 2004
Страна-производитель диска (релиза): Россия
Жанр: Pop, Rock
Источник (релизер): Кантиливер
Наличие сканов в содержимом раздачи: да
Продолжительность: 00:40:24

Описание: В январе 2003 года журнал YES! обьявил о намерении собрать музыкальную группу с одноименным названием и устроил конкурс под названием "YES! зажигает звёзды!" Всё, что нужно было сделать - это прислать в редакцию фото, аудио- или видеозапись, где были бы "запечатлены таланты". В редакцию пришло n-ое количество записей. После жесткого отбора остались 3 девушки: Анна, Юлия и Юлианна (Караулова)!

Кодек: FLAC
Битрейт: Lossless
Тип рипа: image + .cue

Треклист:
01. Yes! - Ты не знаешь...
02. Yes! - Передумала
03. Мумий Тролль - Это по любви (Japanese version)
04. Smash!! - Freeway
05. Найк Борзов - Приснится мне, что я тебя...
06. Дима Билан - Я так люблю тебя
07. Дельфин; Stella - Глаза
08. Звери - Пингвины
09. Магнитная аномалия - Гороскоп
10. Ber-linn - Ты

Лог создания рипа:

Exact Audio Copy V1.1 from 23. June 2015
Отчёт EAC об извлечении, выполненном 6. марта 2016, 22:42
Various Artists / Журнал YES! - 10 песен о любви
Дисковод: ASUS DRW-24F1ST a Adapter: 1 ID: 0
Режим чтения : Достоверность
Использование точного потока : Да
Отключение кэша аудио : Да
Использование указателей C2 : Нет
Коррекция смещения при чтении : 6
Способность читать области Lead-in и Lead-out : Нет
Заполнение пропущенных сэмплов тишиной : Да
Удаление блоков с тишиной в начале и конце : Нет
При вычислениях CRC использовались нулевые сэмплы : Да
Интерфейс : Встроенный Win32-интерфейс для Win NT/2000
Выходной формат : Внутренние WAV-операции
Формат сэмплов : 44.100 Гц; 16 бит; стерео
TOC извлечённого CD
Трек | Старт | Длительность | Начальный сектор | Конечный сектор
---------------------------------------------------------------------
1 | 0:00.00 | 3:50.46 | 0 | 17295
2 | 3:50.46 | 3:27.69 | 17296 | 32889
3 | 7:18.40 | 3:24.51 | 32890 | 48240
4 | 10:43.16 | 3:58.25 | 48241 | 66115
5 | 14:41.41 | 6:07.38 | 66116 | 93678
6 | 20:49.04 | 4:09.47 | 93679 | 112400
7 | 24:58.51 | 4:21.30 | 112401 | 132005
8 | 29:20.06 | 3:51.67 | 132006 | 149397
9 | 33:11.73 | 3:35.31 | 149398 | 165553
10 | 36:47.29 | 3:37.23 | 165554 | 181851
Характеристики диапазона извлечения и сообщения об ошибках
Выбранный диапазон
Имя файла F:\Кантиливер\VA - Журнал YES! 10 песен о любви\Various Artists - Журнал YES! - 10 песен о любви.wav
Пиковый уровень 100.0 %
Скорость извлечения 6.7 X
Качество диапазона 100.0 %
CRC теста 62A741E0
CRC копии 62A741E0
Копирование... OK
Ошибок не произошло
AccurateRip: сводка
Трек 1 отсутствует в базе данных
Трек 2 отсутствует в базе данных
Трек 3 отсутствует в базе данных
Трек 4 отсутствует в базе данных
Трек 5 отсутствует в базе данных
Трек 6 отсутствует в базе данных
Трек 7 отсутствует в базе данных
Трек 8 отсутствует в базе данных
Трек 9 отсутствует в базе данных
Трек 10 отсутствует в базе данных
Ни одного трека нет в базе AccurateRip
Конец отчёта
---- CUETools DB Plugin V2.1.6
[CTDB TOCID: tsnm2jA5krFD9PhJCh1.ULZ.Uiw-] disk not present in database
Submit result: tsnm2jA5krFD9PhJCh1.ULZ.Uiw- has been uploaded
==== Контрольная сумма отчёта B0E6D487B10D11A4D064E9C844BAA95B1A82C4B370DAF717742CDD258CD5AD49 ====

Отчёт auCDtect Task manager:


-----------------------
DON'T MODIFY THIS FILE
-----------------------
PERFORMER: auCDtect Task Manager, ver. 1.6.0 RC1 build 1.6.0.1
Copyright (c) 2008-2010 y-soft. All rights reserved
http://y-soft.org
ANALYZER: auCDtect: CD records authenticity detector, version 0.8.2
Copyright (c) 2004 Oleg Berngardt. All rights reserved.
Copyright (c) 2004 Alexander Djourik. All rights reserved.
FILE: Various Artists - Журнал YES! - 10 песен о любви.flac
Size: 299648431 Hash: 7518CDE61669734ABB546582777DE1F3 Accuracy: -m0
Conclusion: CDDA 100%
Signature: B52A5FA8B49AD547BD813FF0468729D322C32BB5

CUE scheet (*.cue)

REM GENRE Pop/Rock
REM DATE 2004
REM DISCID 7509780A
REM COMMENT ExactAudioCopy v1.1
PERFORMER "Various Artists"
TITLE "Журнал YES! - 10 песен о любви"
FILE "Various Artists - Журнал YES! - 10 песен о любви.flac" WAVE
TRACK 01 AUDIO
TITLE "Ты не знаешь..."
PERFORMER "Yes!"
INDEX 01 00:00:00
TRACK 02 AUDIO
TITLE "Передумала"
PERFORMER "Yes!"
INDEX 00 03:48:46
INDEX 01 03:50:46
TRACK 03 AUDIO
TITLE "Это по любви (Japanese version)"
PERFORMER "Мумий Тролль"
INDEX 00 07:16:40
INDEX 01 07:18:40
TRACK 04 AUDIO
TITLE "Freeway"
PERFORMER "Smash!!"
INDEX 00 10:41:16
INDEX 01 10:43:16
TRACK 05 AUDIO
TITLE "Приснится мне, что я тебя..."
PERFORMER "Найк Борзов"
INDEX 00 14:39:41
INDEX 01 14:41:41
TRACK 06 AUDIO
TITLE "Я так люблю тебя"
PERFORMER "Дима Билан"
INDEX 00 20:47:04
INDEX 01 20:49:04
TRACK 07 AUDIO
TITLE "Глаза"
PERFORMER "Дельфин; Stella"
INDEX 00 24:56:51
INDEX 01 24:58:51
TRACK 08 AUDIO
TITLE "Пингвины"
PERFORMER "Звери"
INDEX 00 29:18:06
INDEX 01 29:20:06
TRACK 09 AUDIO
TITLE "Гороскоп"
PERFORMER "Магнитная аномалия"
INDEX 00 33:09:73
INDEX 01 33:11:73
TRACK 10 AUDIO
TITLE "Ты"
PERFORMER "Ber-linn"
INDEX 00 36:45:29
INDEX 01 36:47:29
Детали торрента:
Название:VA - 10 песен о любви (2004) бесплатное приложение к журналу Yes! [FLAC|Lossless|image + .cue] <Pop, Rock>
Дата добавления:16 Янв 2017 20:10:28
Размер:302 MB
Раздают:
Качают:0
Форум:Отечественная поп-музыка (Lossless)

All rights reserved © 2015-2019