TORRENTS45.XYZ

Скачать Ayako Ishikawa - SAKURA SYMPHONY (2016) [FLAC|Lossless|image+.cue+dvdiso] <J-Pop, Symphonic>


Ayako Ishikawa - SAKURA SYMPHONY (2016)
Год: 2016
Тип издания: Commercial
Жанр: J-Pop, Symphonic
Теги: Violin, Arrangement, Live Event
Производство: Avex Trax
Исполнители: Ayako Ishikawa
Продолжительность: 00:50:07
Страна: Japan
Catalog №: AVCD-93519/B
Ссылка на сайт артиста

Кодек: FLAC
Обложка: Yes
Битрейт: Lossless|CDDA

Треклист:
CD
01. 英雄の証 (4:02)
02. フライングゲット (3:58)
03. Merry Christmas Mr.Lawrence (3:20)
04. メギツネ (4:15)
05. 『PASSION』 (4:06)
06.(4:06)
07. 脳漿炸裂ガール (3:00)
08. 君をのせて (4:33)
09. 残酷な天使のテーゼ (3:44)
10. めざせポケモンマスター (3:41)
11. 愛燦燦 (4:14)
12. 千本桜 (3:40)
13. はなまるぴっぴはよいこだけ (3:28)

DVD
01. はなまるぴっぴはよいこだけ -MUSIC VIDEO-
02. フライングゲット -MUSIC VIDEO-
03. SAKURA SYMPHONY -MAKING-

EAC log

Код: выделить все
Exact Audio Copy V1.3 from 2. September 2016

EAC 抓取日志文件从2. 十二月 2016, 19:32

石川綾子 / SAKURA SYMPHONY

使用驱动器  :PIONEER BD-RW   BDR-209D   Adapter: 1  ID: 0

读取模式      : 可靠Secure
使用精确流     : 是
清空音频缓存    : 是
使用 C2 指示器 : 否

读取偏移校正:               : 667
读取 Lead-In 和 Lead-Out : 否
用静音填充抓取中丢失偏移的采样       : 是
去除首尾静音块               : 否
 在CRC 计算中使用了空样本       : 是
已用接口                  : Win NT 及 2000 本地 Win32 接口

所用输出模式: : 内部 WAV 函数
样本格式    : 44.100 Hz; 16 Bit; 立体声

已抓取 CD 的 TOC

     音轨 |    起始    |    长度    |  起始扇区  |  结束扇区
    --------------------------------------------
      1 |  0:00.00 |  4:01.55 |      0 |  18129
      2 |  4:01.55 |  3:57.62 |  18130 |  35966
      3 |  7:59.42 |  3:20.23 |  35967 |  50989
      4 | 11:19.65 |  4:14.62 |  50990 |  70101
      5 | 15:34.52 |  4:06.35 |  70102 |  88586
      6 | 19:41.12 |  4:05.68 |  88587 | 107029
      7 | 23:47.05 |  2:59.65 | 107030 | 120519
      8 | 26:46.70 |  4:32.60 | 120520 | 140979
      9 | 31:19.55 |  3:44.07 | 140980 | 157786
     10 | 35:03.62 |  3:41.35 | 157787 | 174396
     11 | 38:45.22 |  4:13.73 | 174397 | 193444
     12 | 42:59.20 |  3:39.55 | 193445 | 209924
     13 | 46:39.00 |  3:28.30 | 209925 | 225554

范围状态及错误

已选择范围

     文件名 C:\Users\Lui\Desktop\石川綾子 - SAKURA SYMPHONY.wav

     峰值电平 99.4 %
     抓取速度 7.2 X
     范围质量 100.0 %
     复制 CRC 8E3BF691
     复制成功

没有错误发生

状态报告结尾

---- CUETools DB Plugin V2.1.6

[CTDB TOCID: BA_leL1wC.jqjqnSQWp3OiCUzck-] found
Submit result: BA_leL1wC.jqjqnSQWp3OiCUzck- has been confirmed
Track | CTDB Status
  1   | (6/6) Accurately ripped
  2   | (6/6) Accurately ripped
  3   | (6/6) Accurately ripped
  4   | (6/6) Accurately ripped
  5   | (6/6) Accurately ripped
  6   | (6/6) Accurately ripped
  7   | (6/6) Accurately ripped
  8   | (6/6) Accurately ripped
  9   | (6/6) Accurately ripped
 10   | (6/6) Accurately ripped
 11   | (6/6) Accurately ripped
 12   | (6/6) Accurately ripped
 13   | (6/6) Accurately ripped

auCDtect log

Код: выделить все
-----------------------

DON'T MODIFY THIS FILE

-----------------------

PERFORMER: auCDtect Task Manager, ver. 1.6.0 RC1 build 1.6.0.1
Copyright (c) 2008-2010 y-soft. All rights reserved
http://y-soft.org

ANALYZER: auCDtect: CD records authenticity detector, version 0.8.2
Copyright (c) 2004 Oleg Berngardt. All rights reserved.
Copyright (c) 2004 Alexander Djourik. All rights reserved.

FILE: Ayako Ishikawa - SAKURA SYMPHONY.flac
  Size: 344251560 Hash: 6F162CC5B9F71110EE761E71E0821E59 Accuracy: -m0
  Conclusion: CDDA 100%
  Signature: 1F94948418138258BEA92554125A42EDB32CA07B

Содержание индексной карты

Код: выделить все
REM DATE 2016
REM DISCID A80BBF0D
REM COMMENT "ExactAudioCopy v1.3"
PERFORMER "石川綾子"
TITLE "SAKURA SYMPHONY"
REM COMPOSER ""
FILE "Ayako Ishikawa - SAKURA SYMPHONY.flac" WAVE
  TRACK 01 AUDIO
    TITLE "英雄の証"
    PERFORMER "石川綾子"
    REM COMPOSER ""
    INDEX 01 00:00:00
  TRACK 02 AUDIO
    TITLE "フライングゲット"
    PERFORMER "石川綾子"
    REM COMPOSER ""
    INDEX 00 03:59:45
    INDEX 01 04:01:55
  TRACK 03 AUDIO
    TITLE "Merry Christmas Mr.Lawrence"
    PERFORMER "石川綾子"
    REM COMPOSER ""
    INDEX 00 07:57:31
    INDEX 01 07:59:42
  TRACK 04 AUDIO
    TITLE "メギツネ"
    PERFORMER "石川綾子"
    REM COMPOSER ""
    INDEX 00 11:17:17
    INDEX 01 11:19:65
  TRACK 05 AUDIO
    TITLE "『PASSION』"
    PERFORMER "石川綾子"
    REM COMPOSER ""
    INDEX 00 15:33:03
    INDEX 01 15:34:52
  TRACK 06 AUDIO
    TITLE "糸"
    PERFORMER "石川綾子"
    REM COMPOSER ""
    INDEX 00 19:39:01
    INDEX 01 19:41:12
  TRACK 07 AUDIO
    TITLE "脳漿炸裂ガール"
    PERFORMER "石川綾子"
    REM COMPOSER ""
    INDEX 00 23:45:31
    INDEX 01 23:47:05
  TRACK 08 AUDIO
    TITLE "君をのせて"
    PERFORMER "石川綾子"
    REM COMPOSER ""
    INDEX 00 26:44:59
    INDEX 01 26:46:70
  TRACK 09 AUDIO
    TITLE "残酷な天使のテーゼ"
    PERFORMER "石川綾子"
    REM COMPOSER ""
    INDEX 00 31:17:07
    INDEX 01 31:19:55
  TRACK 10 AUDIO
    TITLE "めざせポケモンマスター"
    PERFORMER "石川綾子"
    REM COMPOSER ""
    INDEX 00 35:01:54
    INDEX 01 35:03:62
  TRACK 11 AUDIO
    TITLE "愛燦燦"
    PERFORMER "石川綾子"
    REM COMPOSER ""
    INDEX 00 38:42:50
    INDEX 01 38:45:22
  TRACK 12 AUDIO
    TITLE "千本桜"
    PERFORMER "石川綾子"
    REM COMPOSER ""
    INDEX 00 42:57:09
    INDEX 01 42:59:20
  TRACK 13 AUDIO
    TITLE "はなまるぴっぴはよいこだけ"
    PERFORMER "石川綾子"
    REM COMPOSER ""
    INDEX 00 46:35:26
    INDEX 01 46:39:00



Поглощение/вытеснение
Только с согласия релизера

ElSwanko
Детали торрента:
Название:Ayako Ishikawa - SAKURA SYMPHONY (2016) [FLAC|Lossless|image+.cue+dvdiso] <J-Pop, Symphonic>
Дата добавления:06 Дек 2016 16:30:27
Размер:1,39 GB
Раздают:1
Качают:0
Форум:Other Asian (Lossless)

All rights reserved © 2015-2018