TORRENTS45.XYZ

Скачать Albert Collins, Robert Cray, Johnny Copeland - Showdown! (1985) Remastered, 2011, Alligator Records [FLAC|Lossless|image + .cue] <Texas Blues>


Albert Collins, Robert Cray, Johnny Copeland - Showdown! (1985)
Remastered, 2011, Alligator Records

Год: 1985 (2011)
Жанр: Texas Blues
Издание: Alligator Records - ALCD 8743
Продолжительность: 00:49:05
Кодек: FLAC
Битрейт: Lossless
Тип рипа: image + .cue
Треклист:

01| T-Bone Shuffle (04:58)
02| The Moon Is Full (05:03)
03| Lion's Den (04:00)
04| She's Into Something (03:51)
05| Bring Your Fine Self Home (04:33)
06| Black Cat Bone (04:58)
07| The Dream (05:32)
08| Albert's Alley (04:05)
09| Blackjack (06:34)
10| Something To Remember You By [Bonus track] (05:27)

Дополнительная информация:

Credits:
Bass – Johnny Gayden
Drums – Casey Jones
Guitar, Harmonica, Vocals – Albert Collins
Guitar, Vocals – Johnny Copeland, Robert Cray
Organ – Allen Batts
Producer – Bruce Iglauer, Dick Shurman

Отчёт EAC:


Exact Audio Copy V1.0 beta 3 from 29. August 2011

EAC extraction logfile from 27. January 2012, 22:18

Albert Collins, Robert Cray and Johnny Copeland / Showdown!

Used drive : Optiarc DVD RW AD-7240S Adapter: 1 ID: 1

Read mode : Secure
Utilize accurate stream : Yes
Defeat audio cache : Yes
Make use of C2 pointers : No

Read offset correction : 48
Overread into Lead-In and Lead-Out : No
Fill up missing offset samples with silence : Yes
Delete leading and trailing silent blocks : No
Null samples used in CRC calculations : Yes
Used interface : Native Win32 interface for Win NT & 2000

Used output format : User Defined Encoder
Selected bitrate : 896 kBit/s
Quality : High
Add ID3 tag : No
Command line compressor : C:\Program Files\Exact Audio Copy\FLAC\FLAC.EXE
Additional command line options : -6 -V -T "ARTIST=%artist%" -T "TITLE=%title%" -T "ALBUM=%albumtitle%" -T "DATE=%year%" -T "TRACKNUMBER=%tracknr%" -T "GENRE=%genre%" -T "COMMENT=%comment%" -T "BAND=%albuminterpret%" -T "COMPOSER=%composer%" %haslyrics%--tag-from-file=LYRICS="%lyricsfile%"%haslyrics% -T "DISCNUMBER=%cdnumber%" -T "TOTALDISCS=%totalcds%" -T "TOTALTRACKS=%numtracks%" %hascover%--picture="%coverfile%"%hascover% %source% -o %dest%

TOC of the extracted CD

Track | Start | Length | Start sector | End sector
---------------------------------------------------------
1 | 0:00.00 | 4:58.14 | 0 | 22363
2 | 4:58.14 | 5:03.11 | 22364 | 45099
3 | 10:01.25 | 4:00.40 | 45100 | 63139
4 | 14:01.65 | 3:51.55 | 63140 | 80519
5 | 17:53.45 | 4:33.17 | 80520 | 101011
6 | 22:26.62 | 4:58.70 | 101012 | 123431
7 | 27:25.57 | 5:32.06 | 123432 | 148337
8 | 32:57.63 | 4:05.67 | 148338 | 166779
9 | 37:03.55 | 6:34.00 | 166780 | 196329
10 | 43:37.55 | 5:27.40 | 196330 | 220894

Range status and errors

Selected range

Filename D:\My Docs 2\My Music 2\Albert Collins, Robert Cray and Johnny Copeland - Showdown!\Albert Collins, Robert Cray and Johnny Copeland - Showdown!.wav

Peak level 100.0 %
Extraction speed 3.4 X
Range quality 100.0 %
Test CRC 81A832AA
Copy CRC 81A832AA
Copy OK

No errors occurred

AccurateRip summary

Track 1 accurately ripped (confidence 2) [A43B2207] (AR v1)
Track 2 accurately ripped (confidence 2) [2273C79A] (AR v1)
Track 3 accurately ripped (confidence 2) [5E172177] (AR v1)
Track 4 accurately ripped (confidence 2) [7BEF1BD2] (AR v1)
Track 5 accurately ripped (confidence 2) [C779CB53] (AR v1)
Track 6 accurately ripped (confidence 2) [E40E24AA] (AR v1)
Track 7 accurately ripped (confidence 2) [868B84C0] (AR v1)
Track 8 accurately ripped (confidence 2) [FDE1AD09] (AR v1)
Track 9 accurately ripped (confidence 2) [6C5AABB1] (AR v1)
Track 10 accurately ripped (confidence 2) [71A0AC10] (AR v1)

All tracks accurately ripped

End of status report

==== Log checksum 43B7B28FDE7A04823E3CD91D90E94760B8BD8898C662C733762C075AF2F313C9 ====

Cue Sheet (.cue):


REM GENRE Blues
REM DATE 1985
REM DISCID 830B810A
REM COMMENT "ExactAudioCopy v1.0b3"
CATALOG 0014551874324
PERFORMER "Albert Collins, Robert Cray and Johnny Copeland"
TITLE "Showdown!"
FILE "Albert Collins, Robert Cray and Johnny Copeland - Showdown!.flac" WAVE
TRACK 01 AUDIO
TITLE "T-Bone Shuffle"
PERFORMER "Albert Collins, Robert Cray and Johnny Copeland"
ISRC USARL1174301
FLAGS DCP
INDEX 01 00:00:00
TRACK 02 AUDIO
TITLE "The Moon Is Full"
PERFORMER "Albert Collins, Robert Cray and Johnny Copeland"
ISRC USARL1174302
FLAGS DCP
INDEX 00 04:55:16
INDEX 01 04:58:14
TRACK 03 AUDIO
TITLE "Lion's Den"
PERFORMER "Albert Collins, Robert Cray and Johnny Copeland"
ISRC USARL1174303
FLAGS DCP
INDEX 00 09:59:60
INDEX 01 10:01:25
TRACK 04 AUDIO
TITLE "She's Into Something"
PERFORMER "Albert Collins, Robert Cray and Johnny Copeland"
ISRC USARL1174304
FLAGS DCP
INDEX 00 13:59:02
INDEX 01 14:01:65
TRACK 05 AUDIO
TITLE "Bring Your Fine Self Home"
PERFORMER "Albert Collins, Robert Cray and Johnny Copeland"
ISRC USARL1174305
FLAGS DCP
INDEX 00 17:51:54
INDEX 01 17:53:45
TRACK 06 AUDIO
TITLE "Black Cat Bone"
PERFORMER "Albert Collins, Robert Cray and Johnny Copeland"
ISRC USARL1174306
FLAGS DCP
INDEX 00 22:25:17
INDEX 01 22:26:62
TRACK 07 AUDIO
TITLE "The Dream"
PERFORMER "Albert Collins, Robert Cray and Johnny Copeland"
ISRC USARL1174307
FLAGS DCP
INDEX 00 27:23:51
INDEX 01 27:25:57
TRACK 08 AUDIO
TITLE "Albert's Alley"
PERFORMER "Albert Collins, Robert Cray and Johnny Copeland"
ISRC USARL1174308
FLAGS DCP
INDEX 01 32:57:63
TRACK 09 AUDIO
TITLE "Blackjack"
PERFORMER "Albert Collins, Robert Cray and Johnny Copeland"
ISRC USARL1174309
FLAGS DCP
INDEX 00 37:01:67
INDEX 01 37:03:55
TRACK 10 AUDIO
TITLE "Something To Remember You By"
PERFORMER "Albert Collins, Robert Cray and Johnny Copeland"
ISRC USARL1174310
FLAGS DCP
INDEX 00 43:33:27
INDEX 01 43:37:55

Отчёт auCDtect Task manager:


-----------------------

DON'T MODIFY THIS FILE

-----------------------

PERFORMER: auCDtect Task Manager, ver. 1.6.0 RC1 build 1.6.0.1
Copyright (c) 2008-2010 y-soft. All rights reserved
http://y-soft.org

ANALYZER: auCDtect: CD records authenticity detector, version 0.8.2
Copyright (c) 2004 Oleg Berngardt. All rights reserved.
Copyright (c) 2004 Alexander Djourik. All rights reserved.

FILE: Albert Collins, Robert Cray and Johnny Copeland - Showdown!.flac
Size: 322339938 Hash: 89B8DA1C55277F160E976A615AD8E0E1 Accuracy: -m0
Conclusion: CDDA 100%
Signature: 52348526972CF851CD447A2D9D21ACBF55A0871C
YouTube YouTube YouTube




Поглощение/вытеснение
Только с согласия релизера

gvm55

Детали торрента:
Название:Albert Collins, Robert Cray, Johnny Copeland - Showdown! (1985) Remastered, 2011, Alligator Records [FLAC|Lossless|image + .cue] <Texas Blues>
Дата добавления:01 Дек 2016 17:36:15
Размер:318 MB
Раздают:2
Качают:0
Форум:Blues, Soul (Lossless)

All rights reserved © 2015-2018