TORRENTS45.XYZ

Скачать Дамбо / Dumbo (1941) BDRip [H.265/1080p-LQ]


Дамбо / Dumbo (1941) BDRip
Производство: США / Walt Disney Productions
Жанр: Мультфильм, Музыкальный, Семейный

Режиссер: Сэмюэл Армстронг, Норман Фергюсон, Уилфред Джексон, Джек Кинни, Билл Робертс, Бен Шарпстин, Джон Эллиотт
Персонажи: Джеймс Бескетт, Херман Бинг, Билли Блэтчер, Эдвард Брофи, Джим Кармайкл, Холл Джонсон Шор, Клифф Эдвардс, Верна Фелтон, Норин Гэммилл, Эдди Холден

Описание:
История о маленьком слоненке из цирка, родившемся с очень большими ушами, что было рассмотрено как позорное явление среди цирковых слонов. Но зато он научился летать.


Возраст: 0+ (для любой зрительской аудитории)
Рейтинг MPAA: G (нет возрастных ограничений)

Релиз от: PirateMKV

Продолжительность: 01:03:57
Качество видео: BDRip-LQ
Перевод: Дублированный (Blu-ray CEE)
Язык субтитров: Русский
Вид субтитров: Вшитые отключаемые

Видео: HEVC/H.265, 14380x1080, ~5574 Kbps
Аудио: AC3, 2 ch, 320 Kbps, CBR

Mediainfo:


Общее
Уникальный идентификатор : 224741384375319996915968764691185794429 (0xA9139DBEB3F8A35386A09EF580FDFD7D)
Полное имя : E:\Video\Дамбо (Dumbo).mkv
Формат : Matroska
Версия формата : Version 4 / Version 2
Размер файла : 2,63 Гбайт
Продолжительность : 1 ч. 3 м.
Общий поток : 5897 Кбит/сек
Название фильма : Дамбо / Dumbo
Дата кодирования : UTC 2016-11-02 13:41:35
Программа кодирования : mkvmerge v9.0.1 ('Obstacles') 64bit
Библиотека кодирования : libebml v1.3.3 + libmatroska v1.4.4
Обложка : Yes
Attachments : cover.jpg / xlog.txt

Видео
Идентификатор : 1
Формат : HEVC
Формат/Информация : High Efficiency Video Coding
Профиль формата : Main@L4@Main
Идентификатор кодека : V_MPEGH/ISO/HEVC
Продолжительность : 1 ч. 3 м.
Битрейт : 5574 Кбит/сек
Ширина : 1438 пикселей
Высота : 1080 пикселей
Соотношение сторон : 4:3
Режим частоты кадров : Постоянный
Частота кадров : 23,976 (24000/1001) кадра/сек
Цветовое пространство : YUV
Субдискретизация насыщенности : 4:2:0
Битовая глубина : 8 бит
Бит/(Пиксели*Кадры) : 0.150
Размер потока : 2,49 Гбайт (95%)
Заголовок : Dumbo (1941) - PirateMKV
Библиотека кодирования : x265 1.9+169-e5b5bdc3c154:[Windows][GCC 5.3.0][64 bit] 8bit
Настройки программы : wpp / ctu=64 / min-cu-size=8 / max-tu-size=32 / tu-intra-depth=3 / tu-inter-depth=3 / me=2 / subme=4 / merange=57 / no-rect / no-amp / max-merge=3 / temporal-mvp / no-early-skip / no-recursion-skip / rdpenalty=0 / no-tskip / no-tskip-fast / strong-intra-smoothing / no-lossless / no-cu-lossless / no-constrained-intra / fast-intra / open-gop / no-temporal-layers / interlace=0 / keyint=250 / min-keyint=23 / scenecut=40 / rc-lookahead=40 / lookahead-slices=0 / bframes=8 / bframe-bias=0 / b-adapt=2 / ref=5 / limit-refs=3 / limit-modes / weightp / weightb / aq-mode=3 / qg-size=32 / aq-strength=2.00 / cbqpoffs=0 / crqpoffs=0 / rd=4 / psy-rd=1.00 / rdoq-level=0 / psy-rdoq=0.00 / no-rd-refine / signhide / deblock=-1:-1 / sao / no-sao-non-deblock / b-pyramid / no-cutree / no-intra-refresh / rc=crf / crf=21.4 / qcomp=0.60 / qpmin=0 / qpmax=51 / qpstep=4 / vbv-maxrate=12000 / vbv-bufsize=12000 / crf-max=0.0 / ipratio=1.40 / pbratio=1.30
Язык : English
Default : Да
Forced : Нет
Цветовой диапазон : Limited
Коэффициенты матрицы : BT.709

Аудио
Идентификатор : 4
Формат : AC-3
Формат/Информация : Audio Coding 3
Профиль формата : Dolby Digital
Расширение режима : CM (complete main)
Параметр Endianness формата : Big
Идентификатор кодека : A_AC3
Продолжительность : 1 ч. 3 м.
Вид битрейта : Постоянный
Битрейт : 320 Кбит/сек
Каналы : 2 канала
Расположение каналов : Front: L R
Частота : 48,0 КГц
Частота кадров : 31,250 кадров/сек (1536 spf)
Метод сжатия : С потерями
Размер потока : 146 Мбайт (5%)
Заголовок : Дублированный [Blu-ray CEE]
Язык : Russian
Default : Да
Forced : Нет

Текст #1
Идентификатор : 2
Формат : UTF-8
Идентификатор кодека : S_TEXT/UTF8
Идентификатор кодека/Информация : UTF-8 Plain Text
Продолжительность : 56 м. 42 с.
Битрейт : 0 бит/сек
Count of elements : 10
Размер потока : 257 байт (0%)
Заголовок : Forced
Язык : Russian
Default : Да
Forced : Нет

Текст #2
Идентификатор : 3
Формат : UTF-8
Идентификатор кодека : S_TEXT/UTF8
Идентификатор кодека/Информация : UTF-8 Plain Text
Продолжительность : 1 ч. 3 м.
Битрейт : 64 бит/сек
Count of elements : 664
Размер потока : 29,8 Кбайт (0%)
Язык : Russian
Default : Нет
Forced : Нет

Меню
00:00:00.000 : en:Opening Credits
00:01:19.871 : en:"Look Out For Mr. Stork"
00:04:14.921 : en:The Circus Moves On ("Casey Jr.")
00:06:34.352 : en:Delivery for Mrs. Jumbo
00:12:49.727 : en:Setting Up the Big Top ("Song of the Roustabouts")
00:17:01.437 : en:A Bath for Dumbo
00:20:08.040 : en:Mrs. Jumbo in Solitary Confinement
00:23:32.702 : en:Dumbo Meets a New Friend
00:28:30.542 : en:A Pyramid of Pachyderms
00:35:19.534 : en:Dumbo's Disgrace
00:38:11.914 : en:Dumbe Visits His Mother
00:42:34.510 : en:Dumbo Gets the Hiccups
00:46:07.723 : en:"Pink Elephants on Parade"
00:51:00.682 : en:Up a Tree
00:54:42.278 : en:"When I See an Elephant Fly"
00:58:40.350 : en:Dumbe Flies!
01:00:19.449 : en:Dumbo's Surprise

XMP
Xmp.video.FileName : E:\Video\Дамбо (Dumbo).mkv
Xmp.video.FileSize : -1398.9
Xmp.video.MimeType : video/matroska
Xmp.video.EBMLVersion : 1
Xmp.video.EBMLReadVersion : 1
Xmp.video.DocType : matroska
Xmp.video.DocTypeVersion : 4
Xmp.video.DocTypeReadVersion : 2
Xmp.video.TimecodeScale : 0.001
Xmp.video.MuxingApp : libebml v1.3.3 + libmatroska v1.4.4
Xmp.video.WritingApp : mkvmerge v9.0.1 ('Obstacles') 64bit
Xmp.video.Duration : 3836864
Xmp.video.DateUTC : 499786895
Xmp.video.Title : Дамбо / Dumbo
Xmp.video.TotalStream : 4
Xmp.video.TrackLacing : No
Xmp.video.Codec : V_MPEGH/ISO/HEVC
Xmp.video.FrameRate : 23.976
Xmp.video.TrackName : Дублированный [Blu-ray CEE]
Xmp.video.Width : 1438
Xmp.video.Height : 1080
Xmp.video.SubTTrackLacing : No
Xmp.video.SubTCodec : S_TEXT/UTF8
Xmp.video.SubTLang : rus
Xmp.video.SubTDefaultOn : No
Xmp.audio.Compressor : A_AC3
Xmp.audio.DefaultDuration : 32000
Xmp.audio.TrackLang : rus
Xmp.audio.SampleRate : 48000
Xmp.audio.ChannelType : Stereo
Xmp.video.AttachFileName : xlog.txt
Xmp.video.AttachFileMIME : text/plain
Xmp.video.AttachFileUID : 863511937
Xmp.video.AspectRatio : 4:3
Скриншоты:


Все одноименные релизы в Клубе

Смотреть Online

http://moonwalk.cc/video/9b831f27c73ef52e/iframe
Детали торрента:
Название:Дамбо / Dumbo (1941) BDRip [H.265/1080p-LQ]
Дата добавления:03 Ноя 2016 05:10:47
Размер:2,63 GB
Раздают:6
Качают:0
Форум:Зарубежные Мультфильмы (HD*Rip/LQ, DVDRip, SATRip, VHSRip)

All rights reserved © 2015-2018