TORRENTS45.XYZ

Скачать Без права на ошибку (2016) SATRip (серии 1-4 из 4)


Без права на ошибку (2016) SATRip (серии 1-4 из 4)
Производство: Россия / Медиапрофсоюз
Жанр: Мелодрама, драма

Режиссер: Александр Высоковский
Актеры: Илья Ермолов, Наталья Капитонова, Александра Ермакова, Влад Канопка, Игорь Сигов, Ольга Дятловская, Александр Бранкевич, Ирина Рыморова, Василий Козлов (II), Виктор Васильев (II) ...

Описание: Провинциальный город. Друзья Антон и Олег борются за внимание одноклассницы Кати. Антон — сын богатого и влиятельного отца. В его жизни все определяют деньги, и парень привык с их помощью получать все, что захочет. Олег из бедной семьи, он полагается только на себя — золотой медалист и отличник, мечтает о научной карьере. Парни, при всем различии между ними, похожи внешне. Но Катя не отдает никому предпочтения: она понимает, что для Антона она лишь очередной трофей. А к застенчивому Олегу Катя относится по-дружески. Но все меняется, когда троица, после окончания школы приезжает в Москву поступать. Начинается взрослая жизнь, и теперь у каждого из них не будет права на ошибку.


Дата премьеры в России: 22 октября 2016

Продолжительность: 4 x ~ 00:46:00
Качество видео: SATRip

Видео: MPEG4, XviD, 720x448 (1.607), 25.000 fps, 1 800 Kbps (0.223 bit/pixel)
Аудио: MP3, 48.0 KHz, 2 ch, 128 Kbps, CBR

MediaInfo:


Общее
Полное имя : C:\NNM\Без права на ошибку\Bez prava na oshibku 2016 SATRip\01.avi
Формат : AVI
Формат/Информация : Audio Video Interleave
Размер файла : 620 Мбайт
Продолжительность : 44 м.
Общий поток : 1938 Кбит/сек
Программа кодирования : VirtualDubMod 1.5.10.3 | www.virtualdub-fr.org || (build 2550/release)
Библиотека кодирования : VirtualDubMod build 2550/release

Видео
Идентификатор : 0
Формат : MPEG-4 Visual
Профиль формата : Advanced Simple@L5
Параметр BVOP формата : 2
Параметр QPel формата : Нет
Параметр GMC формата : Без точки перехода
Параметр матрицы формата : Default (H.263)
Идентификатор кодека : XVID
Идентификатор кодека/Подсказка : XviD
Продолжительность : 44 м.
Битрейт : 1800 Кбит/сек
Ширина : 720 пикселей
Высота : 448 пикселей
Соотношение сторон : 16:10
Частота кадров : 25,000 кадров/сек
Цветовое пространство : YUV
Субдискретизация насыщенности : 4:2:0
Битовая глубина : 8 бит
Тип развёртки : Прогрессивная
Метод сжатия : С потерями
Бит/(Пиксели*Кадры) : 0.223
Размер потока : 576 Мбайт (93%)
Библиотека кодирования : XviD 1.2.1 (UTC 2008-12-04)

Аудио
Идентификатор : 1
Формат : MPEG Audio
Версия формата : Version 1
Профиль формата : Layer 3
Режим : Joint stereo
Расширение режима : MS Stereo
Идентификатор кодека : 55
Идентификатор кодека/Подсказка : MP3
Продолжительность : 44 м.
Вид битрейта : Постоянный
Битрейт : 128 Кбит/сек
Каналы : 2 канала
Частота : 48,0 КГц
Метод сжатия : С потерями
Размер потока : 41,0 Мбайт (7%)
Выравнивание : Соединение по промежуткам
Продолжительность промежутка : 40 мс. (1,00 видеокадр)
Время предзагрузки промежутка : 504 мс.
Библиотека кодирования : LAME3.99r
Настройки программы : -m j -V 4 -q 9 -lowpass 17 -b 128
Скриншоты:
Все релизы фильма «Без права на ошибку» на Torrents45.xyz

Смотреть Online

http://moonwalk.cc/serial/fff7e011e95bd475048fcdc727595e44/iframe
Детали торрента:
Название:Без права на ошибку (2016) SATRip (серии 1-4 из 4)
Дата добавления:23 Окт 2016 02:39:52
Размер:2,54 GB
Раздают:
Качают:0
Форум:Отечественные сериалы

All rights reserved © 2015-2018