TORRENTS45.XYZ

Скачать Чёрный обелиск - Улан-Удэ Live (2016) [FLAC 2.0|48/24|tracks|Scene] <Metal, Rock>


Чёрный обелиск - Улан-Удэ Live (2016)
Год: 2016
Жанр: Metal, Rock
Продолжительность: 01:38:47

Кодек: FLAC
Кол-во аудио каналов: 2.0, 48/24
Тип рипа: tracks
Происхождение: Scene
Концерт в Улан-Удэ 05.04.2016
Треклист:
01 | Город в огне | 04:22
02 | Пепел | 03:11
03 | Мой мир | 03:31
04 | Мёртвый сезон | 04:40
05 | Душа | 03:17
06 | Марш революции | 02:50
07 | Стой и смотри | 03:46
08 | Полночь | 05:24

Продолжение треклиста:

09 | Чёрный обелиск | 04:00
10 | Меч | 07:00
11 | Свобода | 03:31
12 | Оборона | 03:57
13 | Rock Star | 04:52
14 | Стена | 04:15
15 | Снизу вверх | 04:07
16 | Нервы | 03:23
17 | Разговоры | 03:33
18 | Гуляй поле (E.S.T) | 04:43
19 | Цезарь | 03:50
20 | Дом жёлтого сна | 04:32
21 | Я остаюсь | 04:47
22 | Ещё один день | 05:07
23 | Пельменная | 05:57

Mediainfo:

Код:

Общее
Полное имя                               : D:\Черный Обелиск - Улан-Уде LIVE (2016)\01. Город в огне.flac
Формат                                   : FLAC
Формат/Информация                        : Free Lossless Audio Codec
Размер файла                             : 58,2 Мбайт
Продолжительность                        : 4 м. 22 с.
Режим общего битрейта                    : Переменный
Общий поток                              : 1858 Кбит/сек
Альбом                                   : Улан-Уде Live
Трек                                     : Город в огне
Трек/Положение                           : 01
Исполнитель                              : Чёрный обелиск
Жанр                                     : Metal
Дата записи                              : 2016

Аудио
Формат                                   : FLAC
Формат/Информация                        : Free Lossless Audio Codec
Продолжительность                        : 4 м. 22 с.
Вид битрейта                             : Переменный
Битрейт                                  : 1858 Кбит/сек
Каналы                                   : 2 канала
Расположение каналов                     : Front: L R
Частота                                  : 48,0 КГц
Битовая глубина                          : 24 бит
Размер потока                            : 58,2 Мбайт (100%)
Библиотека кодирования                   : libFLAC 1.1.3 (UTC 2013-05-26)

Общее
Полное имя                               : D:\Черный Обелиск - Улан-Уде LIVE (2016)\01. Город в огне.flac.Spectrogram.png
Формат                                   : PNG
Формат/Информация                        : Portable Network Graphic
Размер файла                             : 80,4 Кбайт

Изображения
Формат                                   : PNG
Формат/Информация                        : Portable Network Graphic
Ширина                                   : 544 пикселя
Высота                                   : 357 пикселей
Битовая глубина                          : 8 бит
Метод сжатия                             : Без потерь
Размер потока                            : 80,4 Кбайт (100%)

Общее
Полное имя                               : D:\Черный Обелиск - Улан-Уде LIVE (2016)\02. Пепел.flac
Формат                                   : FLAC
Формат/Информация                        : Free Lossless Audio Codec
Размер файла                             : 42,2 Мбайт
Продолжительность                        : 3 м. 11 с.
Режим общего битрейта                    : Переменный
Общий поток                              : 1853 Кбит/сек
Альбом                                   : Улан-Уде Live
Трек                                     : Пепел
Трек/Положение                           : 02
Исполнитель                              : Чёрный обелиск
Жанр                                     : Metal
Дата записи                              : 2016

Аудио
Формат                                   : FLAC
Формат/Информация                        : Free Lossless Audio Codec
Продолжительность                        : 3 м. 11 с.
Вид битрейта                             : Переменный
Битрейт                                  : 1853 Кбит/сек
Каналы                                   : 2 канала
Расположение каналов                     : Front: L R
Частота                                  : 48,0 КГц
Битовая глубина                          : 24 бит
Размер потока                            : 42,2 Мбайт (100%)
Библиотека кодирования                   : libFLAC 1.1.3 (UTC 2013-05-26)

Общее
Полное имя                               : D:\Черный Обелиск - Улан-Уде LIVE (2016)\02. Пепел.flac.Spectrogram.png
Формат                                   : PNG
Формат/Информация                        : Portable Network Graphic
Размер файла                             : 82,4 Кбайт

Изображения
Формат                                   : PNG
Формат/Информация                        : Portable Network Graphic
Ширина                                   : 544 пикселя
Высота                                   : 357 пикселей
Битовая глубина                          : 8 бит
Метод сжатия                             : Без потерь
Размер потока                            : 82,4 Кбайт (100%)

Общее
Полное имя                               : D:\Черный Обелиск - Улан-Уде LIVE (2016)\03. Мой мир.flac
Формат                                   : FLAC
Формат/Информация                        : Free Lossless Audio Codec
Размер файла                             : 46,0 Мбайт
Продолжительность                        : 3 м. 31 с.
Режим общего битрейта                    : Переменный
Общий поток                              : 1825 Кбит/сек
Альбом                                   : Улан-Уде Live
Трек                                     : Мой мир
Трек/Положение                           : 03
Исполнитель                              : Чёрный обелиск
Жанр                                     : Metal
Дата записи                              : 2016

Аудио
Формат                                   : FLAC
Формат/Информация                        : Free Lossless Audio Codec
Продолжительность                        : 3 м. 31 с.
Вид битрейта                             : Переменный
Битрейт                                  : 1825 Кбит/сек
Каналы                                   : 2 канала
Расположение каналов                     : Front: L R
Частота                                  : 48,0 КГц
Битовая глубина                          : 24 бит
Размер потока                            : 46,0 Мбайт (100%)
Библиотека кодирования                   : libFLAC 1.1.3 (UTC 2013-05-26)

Общее
Полное имя                               : D:\Черный Обелиск - Улан-Уде LIVE (2016)\03. Мой мир.flac.Spectrogram.png
Формат                                   : PNG
Формат/Информация                        : Portable Network Graphic
Размер файла                             : 82,3 Кбайт

Изображения
Формат                                   : PNG
Формат/Информация                        : Portable Network Graphic
Ширина                                   : 544 пикселя
Высота                                   : 357 пикселей
Битовая глубина                          : 8 бит
Метод сжатия                             : Без потерь
Размер потока                            : 82,3 Кбайт (100%)

Общее
Полное имя                               : D:\Черный Обелиск - Улан-Уде LIVE (2016)\04. Мёртвый сезон.flac
Формат                                   : FLAC
Формат/Информация                        : Free Lossless Audio Codec
Размер файла                             : 61,8 Мбайт
Продолжительность                        : 4 м. 40 с.
Режим общего битрейта                    : Переменный
Общий поток                              : 1848 Кбит/сек
Альбом                                   : Улан-Уде Live
Трек                                     : Мёртвый сезон
Трек/Положение                           : 04
Исполнитель                              : Чёрный обелиск
Жанр                                     : Metal
Дата записи                              : 2016

Аудио
Формат                                   : FLAC
Формат/Информация                        : Free Lossless Audio Codec
Продолжительность                        : 4 м. 40 с.
Вид битрейта                             : Переменный
Битрейт                                  : 1848 Кбит/сек
Каналы                                   : 2 канала
Расположение каналов                     : Front: L R
Частота                                  : 48,0 КГц
Битовая глубина                          : 24 бит
Размер потока                            : 61,8 Мбайт (100%)
Библиотека кодирования                   : libFLAC 1.1.3 (UTC 2013-05-26)

Общее
Полное имя                               : D:\Черный Обелиск - Улан-Уде LIVE (2016)\04. Мёртвый сезон.flac.Spectrogram.png
Формат                                   : PNG
Формат/Информация                        : Portable Network Graphic
Размер файла                             : 82,1 Кбайт

Изображения
Формат                                   : PNG
Формат/Информация                        : Portable Network Graphic
Ширина                                   : 544 пикселя
Высота                                   : 357 пикселей
Битовая глубина                          : 8 бит
Метод сжатия                             : Без потерь
Размер потока                            : 82,1 Кбайт (100%)

Общее
Полное имя                               : D:\Черный Обелиск - Улан-Уде LIVE (2016)\05. Душа.flac
Формат                                   : FLAC
Формат/Информация                        : Free Lossless Audio Codec
Размер файла                             : 44,1 Мбайт
Продолжительность                        : 3 м. 17 с.
Режим общего битрейта                    : Переменный
Общий поток                              : 1868 Кбит/сек
Альбом                                   : Улан-Уде Live
Трек                                     : Душа
Трек/Положение                           : 05
Исполнитель                              : Чёрный обелиск
Жанр                                     : Metal
Дата записи                              : 2016

Аудио
Формат                                   : FLAC
Формат/Информация                        : Free Lossless Audio Codec
Продолжительность                        : 3 м. 17 с.
Вид битрейта                             : Переменный
Битрейт                                  : 1868 Кбит/сек
Каналы                                   : 2 канала
Расположение каналов                     : Front: L R
Частота                                  : 48,0 КГц
Битовая глубина                          : 24 бит
Размер потока                            : 44,1 Мбайт (100%)
Библиотека кодирования                   : libFLAC 1.1.3 (UTC 2013-05-26)

Общее
Полное имя                               : D:\Черный Обелиск - Улан-Уде LIVE (2016)\05. Душа.flac.Spectrogram.png
Формат                                   : PNG
Формат/Информация                        : Portable Network Graphic
Размер файла                             : 79,6 Кбайт

Изображения
Формат                                   : PNG
Формат/Информация                        : Portable Network Graphic
Ширина                                   : 544 пикселя
Высота                                   : 357 пикселей
Битовая глубина                          : 8 бит
Метод сжатия                             : Без потерь
Размер потока                            : 79,6 Кбайт (100%)

Общее
Полное имя                               : D:\Черный Обелиск - Улан-Уде LIVE (2016)\06. Марш революции.flac
Формат                                   : FLAC
Формат/Информация                        : Free Lossless Audio Codec
Размер файла                             : 37,5 Мбайт
Продолжительность                        : 2 м. 50 с.
Режим общего битрейта                    : Переменный
Общий поток                              : 1852 Кбит/сек
Альбом                                   : Улан-Уде Live
Трек                                     : Марш революции
Трек/Положение                           : 06
Исполнитель                              : Чёрный обелиск
Жанр                                     : Metal
Дата записи                              : 2016

Аудио
Формат                                   : FLAC
Формат/Информация                        : Free Lossless Audio Codec
Продолжительность                        : 2 м. 50 с.
Вид битрейта                             : Переменный
Битрейт                                  : 1851 Кбит/сек
Каналы                                   : 2 канала
Расположение каналов                     : Front: L R
Частота                                  : 48,0 КГц
Битовая глубина                          : 24 бит
Размер потока                            : 37,5 Мбайт (100%)
Библиотека кодирования                   : libFLAC 1.1.3 (UTC 2013-05-26)

Общее
Полное имя                               : D:\Черный Обелиск - Улан-Уде LIVE (2016)\06. Марш революции.flac.Spectrogram.png
Формат                                   : PNG
Формат/Информация                        : Portable Network Graphic
Размер файла                             : 83,2 Кбайт

Изображения
Формат                                   : PNG
Формат/Информация                        : Portable Network Graphic
Ширина                                   : 544 пикселя
Высота                                   : 357 пикселей
Битовая глубина                          : 8 бит
Метод сжатия                             : Без потерь
Размер потока                            : 83,2 Кбайт (100%)

Общее
Полное имя                               : D:\Черный Обелиск - Улан-Уде LIVE (2016)\07. Стой и смотри.flac
Формат                                   : FLAC
Формат/Информация                        : Free Lossless Audio Codec
Размер файла                             : 49,7 Мбайт
Продолжительность                        : 3 м. 46 с.
Режим общего битрейта                    : Переменный
Общий поток                              : 1840 Кбит/сек
Альбом                                   : Улан-Уде Live
Трек                                     : Стой и смотри
Трек/Положение                           : 07
Исполнитель                              : Чёрный обелиск
Жанр                                     : Metal
Дата записи                              : 2016

Аудио
Формат                                   : FLAC
Формат/Информация                        : Free Lossless Audio Codec
Продолжительность                        : 3 м. 46 с.
Вид битрейта                             : Переменный
Битрейт                                  : 1840 Кбит/сек
Каналы                                   : 2 канала
Расположение каналов                     : Front: L R
Частота                                  : 48,0 КГц
Битовая глубина                          : 24 бит
Размер потока                            : 49,7 Мбайт (100%)
Библиотека кодирования                   : libFLAC 1.1.3 (UTC 2013-05-26)

Общее
Полное имя                               : D:\Черный Обелиск - Улан-Уде LIVE (2016)\07. Стой и смотри.flac.Spectrogram.png
Формат                                   : PNG
Формат/Информация                        : Portable Network Graphic
Размер файла                             : 81,6 Кбайт

Изображения
Формат                                   : PNG
Формат/Информация                        : Portable Network Graphic
Ширина                                   : 544 пикселя
Высота                                   : 357 пикселей
Битовая глубина                          : 8 бит
Метод сжатия                             : Без потерь
Размер потока                            : 81,6 Кбайт (100%)

Общее
Полное имя                               : D:\Черный Обелиск - Улан-Уде LIVE (2016)\08. Полночь.flac
Формат                                   : FLAC
Формат/Информация                        : Free Lossless Audio Codec
Размер файла                             : 71,0 Мбайт
Продолжительность                        : 5 м. 24 с.
Режим общего битрейта                    : Переменный
Общий поток                              : 1839 Кбит/сек
Альбом                                   : Улан-Уде Live
Трек                                     : Полночь
Трек/Положение                           : 08
Исполнитель                              : Чёрный обелиск
Жанр                                     : Metal
Дата записи                              : 2016

Аудио
Формат                                   : FLAC
Формат/Информация                        : Free Lossless Audio Codec
Продолжительность                        : 5 м. 24 с.
Вид битрейта                             : Переменный
Битрейт                                  : 1839 Кбит/сек
Каналы                                   : 2 канала
Расположение каналов                     : Front: L R
Частота                                  : 48,0 КГц
Битовая глубина                          : 24 бит
Размер потока                            : 71,0 Мбайт (100%)
Библиотека кодирования                   : libFLAC 1.1.3 (UTC 2013-05-26)

Общее
Полное имя                               : D:\Черный Обелиск - Улан-Уде LIVE (2016)\08. Полночь.flac.Spectrogram.png
Формат                                   : PNG
Формат/Информация                        : Portable Network Graphic
Размер файла                             : 80,1 Кбайт

Изображения
Формат                                   : PNG
Формат/Информация                        : Portable Network Graphic
Ширина                                   : 544 пикселя
Высота                                   : 357 пикселей
Битовая глубина                          : 8 бит
Метод сжатия                             : Без потерь
Размер потока                            : 80,1 Кбайт (100%)

Общее
Полное имя                               : D:\Черный Обелиск - Улан-Уде LIVE (2016)\09. Чёрный обелиск.flac
Формат                                   : FLAC
Формат/Информация                        : Free Lossless Audio Codec
Размер файла                             : 53,0 Мбайт
Продолжительность                        : 4 м. 0 с.
Режим общего битрейта                    : Переменный
Общий поток                              : 1844 Кбит/сек
Альбом                                   : Улан-Уде Live
Трек                                     : Чёрный обелиск
Трек/Положение                           : 09
Исполнитель                              : Чёрный обелиск
Жанр                                     : Metal
Дата записи                              : 2016

Аудио
Формат                                   : FLAC
Формат/Информация                        : Free Lossless Audio Codec
Продолжительность                        : 4 м. 0 с.
Вид битрейта                             : Переменный
Битрейт                                  : 1844 Кбит/сек
Каналы                                   : 2 канала
Расположение каналов                     : Front: L R
Частота                                  : 48,0 КГц
Битовая глубина                          : 24 бит
Размер потока                            : 53,0 Мбайт (100%)
Библиотека кодирования                   : libFLAC 1.1.3 (UTC 2013-05-26)

Общее
Полное имя                               : D:\Черный Обелиск - Улан-Уде LIVE (2016)\09. Чёрный обелиск.flac.Spectrogram.png
Формат                                   : PNG
Формат/Информация                        : Portable Network Graphic
Размер файла                             : 78,4 Кбайт

Изображения
Формат                                   : PNG
Формат/Информация                        : Portable Network Graphic
Ширина                                   : 544 пикселя
Высота                                   : 357 пикселей
Битовая глубина                          : 8 бит
Метод сжатия                             : Без потерь
Размер потока                            : 78,4 Кбайт (100%)

Общее
Полное имя                               : D:\Черный Обелиск - Улан-Уде LIVE (2016)\10. Меч.flac
Формат                                   : FLAC
Формат/Информация                        : Free Lossless Audio Codec
Размер файла                             : 89,6 Мбайт
Продолжительность                        : 7 м. 0 с.
Режим общего битрейта                    : Переменный
Общий поток                              : 1789 Кбит/сек
Альбом                                   : Улан-Уде Live
Трек                                     : Меч
Трек/Положение                           : 10
Исполнитель                              : Чёрный обелиск
Жанр                                     : Metal
Дата записи                              : 2016

Аудио
Формат                                   : FLAC
Формат/Информация                        : Free Lossless Audio Codec
Продолжительность                        : 7 м. 0 с.
Вид битрейта                             : Переменный
Битрейт                                  : 1788 Кбит/сек
Каналы                                   : 2 канала
Расположение каналов                     : Front: L R
Частота                                  : 48,0 КГц
Битовая глубина                          : 24 бит
Размер потока                            : 89,6 Мбайт (100%)
Библиотека кодирования                   : libFLAC 1.1.3 (UTC 2013-05-26)

Общее
Полное имя                               : D:\Черный Обелиск - Улан-Уде LIVE (2016)\10. Меч.flac.Spectrogram.png
Формат                                   : PNG
Формат/Информация                        : Portable Network Graphic
Размер файла                             : 80,6 Кбайт

Изображения
Формат                                   : PNG
Формат/Информация                        : Portable Network Graphic
Ширина                                   : 544 пикселя
Высота                                   : 357 пикселей
Битовая глубина                          : 8 бит
Метод сжатия                             : Без потерь
Размер потока                            : 80,6 Кбайт (100%)

Общее
Полное имя                               : D:\Черный Обелиск - Улан-Уде LIVE (2016)\11. Свобода.flac
Формат                                   : FLAC
Формат/Информация                        : Free Lossless Audio Codec
Размер файла                             : 46,5 Мбайт
Продолжительность                        : 3 м. 31 с.
Режим общего битрейта                    : Переменный
Общий поток                              : 1841 Кбит/сек
Альбом                                   : Улан-Уде Live
Трек                                     : Свобода
Трек/Положение                           : 11
Исполнитель                              : Чёрный обелиск
Жанр                                     : Metal
Дата записи                              : 2016

Аудио
Формат                                   : FLAC
Формат/Информация                        : Free Lossless Audio Codec
Продолжительность                        : 3 м. 31 с.
Вид битрейта                             : Переменный
Битрейт                                  : 1841 Кбит/сек
Каналы                                   : 2 канала
Расположение каналов                     : Front: L R
Частота                                  : 48,0 КГц
Битовая глубина                          : 24 бит
Размер потока                            : 46,5 Мбайт (100%)
Библиотека кодирования                   : libFLAC 1.1.3 (UTC 2013-05-26)

Общее
Полное имя                               : D:\Черный Обелиск - Улан-Уде LIVE (2016)\11. Свобода.flac.Spectrogram.png
Формат                                   : PNG
Формат/Информация                        : Portable Network Graphic
Размер файла                             : 83,0 Кбайт

Изображения
Формат                                   : PNG
Формат/Информация                        : Portable Network Graphic
Ширина                                   : 544 пикселя
Высота                                   : 357 пикселей
Битовая глубина                          : 8 бит
Метод сжатия                             : Без потерь
Размер потока                            : 83,0 Кбайт (100%)

Общее
Полное имя                               : D:\Черный Обелиск - Улан-Уде LIVE (2016)\12. Оборона.flac
Формат                                   : FLAC
Формат/Информация                        : Free Lossless Audio Codec
Размер файла                             : 52,5 Мбайт
Продолжительность                        : 3 м. 57 с.
Режим общего битрейта                    : Переменный
Общий поток                              : 1855 Кбит/сек
Альбом                                   : Улан-Уде Live
Трек                                     : Оборона
Трек/Положение                           : 12
Исполнитель                              : Чёрный обелиск
Жанр                                     : Metal
Дата записи                              : 2016

Аудио
Формат                                   : FLAC
Формат/Информация                        : Free Lossless Audio Codec
Продолжительность                        : 3 м. 57 с.
Вид битрейта                             : Переменный
Битрейт                                  : 1855 Кбит/сек
Каналы                                   : 2 канала
Расположение каналов                     : Front: L R
Частота                                  : 48,0 КГц
Битовая глубина                          : 24 бит
Размер потока                            : 52,5 Мбайт (100%)
Библиотека кодирования                   : libFLAC 1.1.3 (UTC 2013-05-26)

Общее
Полное имя                               : D:\Черный Обелиск - Улан-Уде LIVE (2016)\12. Оборона.flac.Spectrogram.png
Формат                                   : PNG
Формат/Информация                        : Portable Network Graphic
Размер файла                             : 81,8 Кбайт

Изображения
Формат                                   : PNG
Формат/Информация                        : Portable Network Graphic
Ширина                                   : 544 пикселя
Высота                                   : 357 пикселей
Битовая глубина                          : 8 бит
Метод сжатия                             : Без потерь
Размер потока                            : 81,8 Кбайт (100%)

Общее
Полное имя                               : D:\Черный Обелиск - Улан-Уде LIVE (2016)\13. Rock Star.flac
Формат                                   : FLAC
Формат/Информация                        : Free Lossless Audio Codec
Размер файла                             : 63,9 Мбайт
Продолжительность                        : 4 м. 52 с.
Режим общего битрейта                    : Переменный
Общий поток                              : 1828 Кбит/сек
Альбом                                   : Улан-Уде Live
Трек                                     : Rock Star
Трек/Положение                           : 13
Исполнитель                              : Чёрный обелиск
Жанр                                     : Metal
Дата записи                              : 2016

Аудио
Формат                                   : FLAC
Формат/Информация                        : Free Lossless Audio Codec
Продолжительность                        : 4 м. 52 с.
Вид битрейта                             : Переменный
Битрейт                                  : 1828 Кбит/сек
Каналы                                   : 2 канала
Расположение каналов                     : Front: L R
Частота                                  : 48,0 КГц
Битовая глубина                          : 24 бит
Размер потока                            : 63,8 Мбайт (100%)
Библиотека кодирования                   : libFLAC 1.1.3 (UTC 2013-05-26)

Общее
Полное имя                               : D:\Черный Обелиск - Улан-Уде LIVE (2016)\13. Rock Star.flac.Spectrogram.png
Формат                                   : PNG
Формат/Информация                        : Portable Network Graphic
Размер файла                             : 82,4 Кбайт

Изображения
Формат                                   : PNG
Формат/Информация                        : Portable Network Graphic
Ширина                                   : 544 пикселя
Высота                                   : 357 пикселей
Битовая глубина                          : 8 бит
Метод сжатия                             : Без потерь
Размер потока                            : 82,4 Кбайт (100%)

Общее
Полное имя                               : D:\Черный Обелиск - Улан-Уде LIVE (2016)\14. Стена.flac
Формат                                   : FLAC
Формат/Информация                        : Free Lossless Audio Codec
Размер файла                             : 56,8 Мбайт
Продолжительность                        : 4 м. 15 с.
Режим общего битрейта                    : Переменный
Общий поток                              : 1864 Кбит/сек
Альбом                                   : Улан-Уде Live
Трек                                     : Стена
Трек/Положение                           : 14
Исполнитель                              : Чёрный обелиск
Жанр                                     : Metal
Дата записи                              : 2016

Аудио
Формат                                   : FLAC
Формат/Информация                        : Free Lossless Audio Codec
Продолжительность                        : 4 м. 15 с.
Вид битрейта                             : Переменный
Битрейт                                  : 1864 Кбит/сек
Каналы                                   : 2 канала
Расположение каналов                     : Front: L R
Частота                                  : 48,0 КГц
Битовая глубина                          : 24 бит
Размер потока                            : 56,7 Мбайт (100%)
Библиотека кодирования                   : libFLAC 1.1.3 (UTC 2013-05-26)

Общее
Полное имя                               : D:\Черный Обелиск - Улан-Уде LIVE (2016)\14. Стена.flac.Spectrogram.png
Формат                                   : PNG
Формат/Информация                        : Portable Network Graphic
Размер файла                             : 78,4 Кбайт

Изображения
Формат                                   : PNG
Формат/Информация                        : Portable Network Graphic
Ширина                                   : 544 пикселя
Высота                                   : 357 пикселей
Битовая глубина                          : 8 бит
Метод сжатия                             : Без потерь
Размер потока                            : 78,4 Кбайт (100%)

Общее
Полное имя                               : D:\Черный Обелиск - Улан-Уде LIVE (2016)\15. Снизу вверх.flac
Формат                                   : FLAC
Формат/Информация                        : Free Lossless Audio Codec
Размер файла                             : 54,4 Мбайт
Продолжительность                        : 4 м. 7 с.
Режим общего битрейта                    : Переменный
Общий поток                              : 1842 Кбит/сек
Альбом                                   : Улан-Уде Live
Трек                                     : Снизу вверх
Трек/Положение                           : 15
Исполнитель                              : Чёрный обелиск
Жанр                                     : Metal
Дата записи                              : 2016

Аудио
Формат                                   : FLAC
Формат/Информация                        : Free Lossless Audio Codec
Продолжительность                        : 4 м. 7 с.
Вид битрейта                             : Переменный
Битрейт                                  : 1842 Кбит/сек
Каналы                                   : 2 канала
Расположение каналов                     : Front: L R
Частота                                  : 48,0 КГц
Битовая глубина                          : 24 бит
Размер потока                            : 54,3 Мбайт (100%)
Библиотека кодирования                   : libFLAC 1.1.3 (UTC 2013-05-26)

Общее
Полное имя                               : D:\Черный Обелиск - Улан-Уде LIVE (2016)\15. Снизу вверх.flac.Spectrogram.png
Формат                                   : PNG
Формат/Информация                        : Portable Network Graphic
Размер файла                             : 82,1 Кбайт

Изображения
Формат                                   : PNG
Формат/Информация                        : Portable Network Graphic
Ширина                                   : 544 пикселя
Высота                                   : 357 пикселей
Битовая глубина                          : 8 бит
Метод сжатия                             : Без потерь
Размер потока                            : 82,1 Кбайт (100%)

Общее
Полное имя                               : D:\Черный Обелиск - Улан-Уде LIVE (2016)\16. Нервы.flac
Формат                                   : FLAC
Формат/Информация                        : Free Lossless Audio Codec
Размер файла                             : 45,2 Мбайт
Продолжительность                        : 3 м. 23 с.
Режим общего битрейта                    : Переменный
Общий поток                              : 1859 Кбит/сек
Альбом                                   : Улан-Уде Live
Трек                                     : Нервы
Трек/Положение                           : 16
Исполнитель                              : Чёрный обелиск
Жанр                                     : Metal
Дата записи                              : 2016

Аудио
Формат                                   : FLAC
Формат/Информация                        : Free Lossless Audio Codec
Продолжительность                        : 3 м. 23 с.
Вид битрейта                             : Переменный
Битрейт                                  : 1859 Кбит/сек
Каналы                                   : 2 канала
Расположение каналов                     : Front: L R
Частота                                  : 48,0 КГц
Битовая глубина                          : 24 бит
Размер потока                            : 45,2 Мбайт (100%)
Библиотека кодирования                   : libFLAC 1.1.3 (UTC 2013-05-26)

Общее
Полное имя                               : D:\Черный Обелиск - Улан-Уде LIVE (2016)\16. Нервы.flac.Spectrogram.png
Формат                                   : PNG
Формат/Информация                        : Portable Network Graphic
Размер файла                             : 80,5 Кбайт

Изображения
Формат                                   : PNG
Формат/Информация                        : Portable Network Graphic
Ширина                                   : 544 пикселя
Высота                                   : 357 пикселей
Битовая глубина                          : 8 бит
Метод сжатия                             : Без потерь
Размер потока                            : 80,5 Кбайт (100%)

Общее
Полное имя                               : D:\Черный Обелиск - Улан-Уде LIVE (2016)\17. Разговоры.flac
Формат                                   : FLAC
Формат/Информация                        : Free Lossless Audio Codec
Размер файла                             : 46,6 Мбайт
Продолжительность                        : 3 м. 33 с.
Режим общего битрейта                    : Переменный
Общий поток                              : 1829 Кбит/сек
Альбом                                   : Улан-Уде Live
Трек                                     : Разговоры
Трек/Положение                           : 17
Исполнитель                              : Чёрный обелиск
Жанр                                     : Metal
Дата записи                              : 2016

Аудио
Формат                                   : FLAC
Формат/Информация                        : Free Lossless Audio Codec
Продолжительность                        : 3 м. 33 с.
Вид битрейта                             : Переменный
Битрейт                                  : 1829 Кбит/сек
Каналы                                   : 2 канала
Расположение каналов                     : Front: L R
Частота                                  : 48,0 КГц
Битовая глубина                          : 24 бит
Размер потока                            : 46,6 Мбайт (100%)
Библиотека кодирования                   : libFLAC 1.1.3 (UTC 2013-05-26)

Общее
Полное имя                               : D:\Черный Обелиск - Улан-Уде LIVE (2016)\17. Разговоры.flac.Spectrogram.png
Формат                                   : PNG
Формат/Информация                        : Portable Network Graphic
Размер файла                             : 84,2 Кбайт

Изображения
Формат                                   : PNG
Формат/Информация                        : Portable Network Graphic
Ширина                                   : 544 пикселя
Высота                                   : 357 пикселей
Битовая глубина                          : 8 бит
Метод сжатия                             : Без потерь
Размер потока                            : 84,2 Кбайт (100%)

Общее
Полное имя                               : D:\Черный Обелиск - Улан-Уде LIVE (2016)\18. Гуляй поле (E.S.T).flac
Формат                                   : FLAC
Формат/Информация                        : Free Lossless Audio Codec
Размер файла                             : 61,6 Мбайт
Продолжительность                        : 4 м. 43 с.
Режим общего битрейта                    : Переменный
Общий поток                              : 1824 Кбит/сек
Альбом                                   : Улан-Уде Live
Трек                                     : Гуляй поле (E.S.T)
Трек/Положение                           : 18
Исполнитель                              : Чёрный обелиск
Жанр                                     : Metal
Дата записи                              : 2016

Аудио
Формат                                   : FLAC
Формат/Информация                        : Free Lossless Audio Codec
Продолжительность                        : 4 м. 43 с.
Вид битрейта                             : Переменный
Битрейт                                  : 1824 Кбит/сек
Каналы                                   : 2 канала
Расположение каналов                     : Front: L R
Частота                                  : 48,0 КГц
Битовая глубина                          : 24 бит
Размер потока                            : 61,6 Мбайт (100%)
Библиотека кодирования                   : libFLAC 1.1.3 (UTC 2013-05-26)

Общее
Полное имя                               : D:\Черный Обелиск - Улан-Уде LIVE (2016)\18. Гуляй поле (E.S.T).flac.Spectrogram.png
Формат                                   : PNG
Формат/Информация                        : Portable Network Graphic
Размер файла                             : 83,4 Кбайт

Изображения
Формат                                   : PNG
Формат/Информация                        : Portable Network Graphic
Ширина                                   : 544 пикселя
Высота                                   : 357 пикселей
Битовая глубина                          : 8 бит
Метод сжатия                             : Без потерь
Размер потока                            : 83,4 Кбайт (100%)

Общее
Полное имя                               : D:\Черный Обелиск - Улан-Уде LIVE (2016)\19. Цезарь.flac
Формат                                   : FLAC
Формат/Информация                        : Free Lossless Audio Codec
Размер файла                             : 50,7 Мбайт
Продолжительность                        : 3 м. 50 с.
Режим общего битрейта                    : Переменный
Общий поток                              : 1845 Кбит/сек
Альбом                                   : Улан-Уде Live
Трек                                     : Цезарь
Трек/Положение                           : 19
Исполнитель                              : Чёрный обелиск
Жанр                                     : Metal
Дата записи                              : 2016

Аудио
Формат                                   : FLAC
Формат/Информация                        : Free Lossless Audio Codec
Продолжительность                        : 3 м. 50 с.
Вид битрейта                             : Переменный
Битрейт                                  : 1845 Кбит/сек
Каналы                                   : 2 канала
Расположение каналов                     : Front: L R
Частота                                  : 48,0 КГц
Битовая глубина                          : 24 бит
Размер потока                            : 50,7 Мбайт (100%)
Библиотека кодирования                   : libFLAC 1.1.3 (UTC 2013-05-26)

Общее
Полное имя                               : D:\Черный Обелиск - Улан-Уде LIVE (2016)\19. Цезарь.flac.Spectrogram.png
Формат                                   : PNG
Формат/Информация                        : Portable Network Graphic
Размер файла                             : 82,7 Кбайт

Изображения
Формат                                   : PNG
Формат/Информация                        : Portable Network Graphic
Ширина                                   : 544 пикселя
Высота                                   : 357 пикселей
Битовая глубина                          : 8 бит
Метод сжатия                             : Без потерь
Размер потока                            : 82,7 Кбайт (100%)

Общее
Полное имя                               : D:\Черный Обелиск - Улан-Уде LIVE (2016)\20. Дом жёлтого сна.flac
Формат                                   : FLAC
Формат/Информация                        : Free Lossless Audio Codec
Размер файла                             : 61,0 Мбайт
Продолжительность                        : 4 м. 32 с.
Режим общего битрейта                    : Переменный
Общий поток                              : 1879 Кбит/сек
Альбом                                   : Улан-Уде Live
Трек                                     : Дом жёлтого сна
Трек/Положение                           : 20
Исполнитель                              : Чёрный обелиск
Жанр                                     : Metal
Дата записи                              : 2016

Аудио
Формат                                   : FLAC
Формат/Информация                        : Free Lossless Audio Codec
Продолжительность                        : 4 м. 32 с.
Вид битрейта                             : Переменный
Битрейт                                  : 1879 Кбит/сек
Каналы                                   : 2 канала
Расположение каналов                     : Front: L R
Частота                                  : 48,0 КГц
Битовая глубина                          : 24 бит
Размер потока                            : 61,0 Мбайт (100%)
Библиотека кодирования                   : libFLAC 1.1.3 (UTC 2013-05-26)

Общее
Полное имя                               : D:\Черный Обелиск - Улан-Уде LIVE (2016)\20. Дом жёлтого сна.flac.Spectrogram.png
Формат                                   : PNG
Формат/Информация                        : Portable Network Graphic
Размер файла                             : 78,5 Кбайт

Изображения
Формат                                   : PNG
Формат/Информация                        : Portable Network Graphic
Ширина                                   : 544 пикселя
Высота                                   : 357 пикселей
Битовая глубина                          : 8 бит
Метод сжатия                             : Без потерь
Размер потока                            : 78,5 Кбайт (100%)

Общее
Полное имя                               : D:\Черный Обелиск - Улан-Уде LIVE (2016)\21. Я остаюсь.flac
Формат                                   : FLAC
Формат/Информация                        : Free Lossless Audio Codec
Размер файла                             : 63,7 Мбайт
Продолжительность                        : 4 м. 47 с.
Режим общего битрейта                    : Переменный
Общий поток                              : 1858 Кбит/сек
Альбом                                   : Улан-Уде Live
Трек                                     : Я остаюсь
Трек/Положение                           : 21
Исполнитель                              : Чёрный обелиск
Жанр                                     : Metal
Дата записи                              : 2016

Аудио
Формат                                   : FLAC
Формат/Информация                        : Free Lossless Audio Codec
Продолжительность                        : 4 м. 47 с.
Вид битрейта                             : Переменный
Битрейт                                  : 1858 Кбит/сек
Каналы                                   : 2 канала
Расположение каналов                     : Front: L R
Частота                                  : 48,0 КГц
Битовая глубина                          : 24 бит
Размер потока                            : 63,7 Мбайт (100%)
Библиотека кодирования                   : libFLAC 1.1.3 (UTC 2013-05-26)

Общее
Полное имя                               : D:\Черный Обелиск - Улан-Уде LIVE (2016)\21. Я остаюсь.flac.Spectrogram.png
Формат                                   : PNG
Формат/Информация                        : Portable Network Graphic
Размер файла                             : 77,4 Кбайт

Изображения
Формат                                   : PNG
Формат/Информация                        : Portable Network Graphic
Ширина                                   : 544 пикселя
Высота                                   : 357 пикселей
Битовая глубина                          : 8 бит
Метод сжатия                             : Без потерь
Размер потока                            : 77,4 Кбайт (100%)

Общее
Полное имя                               : D:\Черный Обелиск - Улан-Уде LIVE (2016)\22. Ещё один день.flac
Формат                                   : FLAC
Формат/Информация                        : Free Lossless Audio Codec
Размер файла                             : 68,6 Мбайт
Продолжительность                        : 5 м. 7 с.
Режим общего битрейта                    : Переменный
Общий поток                              : 1869 Кбит/сек
Альбом                                   : Улан-Уде Live
Трек                                     : Ещё один день
Трек/Положение                           : 22
Исполнитель                              : Чёрный обелиск
Жанр                                     : Metal
Дата записи                              : 2016

Аудио
Формат                                   : FLAC
Формат/Информация                        : Free Lossless Audio Codec
Продолжительность                        : 5 м. 7 с.
Вид битрейта                             : Переменный
Битрейт                                  : 1869 Кбит/сек
Каналы                                   : 2 канала
Расположение каналов                     : Front: L R
Частота                                  : 48,0 КГц
Битовая глубина                          : 24 бит
Размер потока                            : 68,6 Мбайт (100%)
Библиотека кодирования                   : libFLAC 1.1.3 (UTC 2013-05-26)

Общее
Полное имя                               : D:\Черный Обелиск - Улан-Уде LIVE (2016)\22. Ещё один день.flac.Spectrogram.png
Формат                                   : PNG
Формат/Информация                        : Portable Network Graphic
Размер файла                             : 79,3 Кбайт

Изображения
Формат                                   : PNG
Формат/Информация                        : Portable Network Graphic
Ширина                                   : 544 пикселя
Высота                                   : 357 пикселей
Битовая глубина                          : 8 бит
Метод сжатия                             : Без потерь
Размер потока                            : 79,3 Кбайт (100%)

Общее
Полное имя                               : D:\Черный Обелиск - Улан-Уде LIVE (2016)\23. Пельменная.flac
Формат                                   : FLAC
Формат/Информация                        : Free Lossless Audio Codec
Размер файла                             : 70,9 Мбайт
Продолжительность                        : 5 м. 57 с.
Режим общего битрейта                    : Переменный
Общий поток                              : 1662 Кбит/сек
Альбом                                   : Улан-Уде Live
Трек                                     : Пельменная
Трек/Положение                           : 23
Исполнитель                              : Чёрный обелиск
Жанр                                     : Metal
Дата записи                              : 2016

Аудио
Формат                                   : FLAC
Формат/Информация                        : Free Lossless Audio Codec
Продолжительность                        : 5 м. 57 с.
Вид битрейта                             : Переменный
Битрейт                                  : 1662 Кбит/сек
Каналы                                   : 2 канала
Расположение каналов                     : Front: L R
Частота                                  : 48,0 КГц
Битовая глубина                          : 24 бит
Размер потока                            : 70,9 Мбайт (100%)
Библиотека кодирования                   : libFLAC 1.1.3 (UTC 2013-05-26)

Общее
Полное имя                               : D:\Черный Обелиск - Улан-Уде LIVE (2016)\23. Пельменная.flac.Spectrogram.png
Формат                                   : PNG
Формат/Информация                        : Portable Network Graphic
Размер файла                             : 89,3 Кбайт

Изображения
Формат                                   : PNG
Формат/Информация                        : Portable Network Graphic
Ширина                                   : 544 пикселя
Высота                                   : 357 пикселей
Битовая глубина                          : 8 бит
Метод сжатия                             : Без потерь
Размер потока                            : 89,3 Кбайт (100%)

Спектрограмма:













Детали торрента:
Название:Чёрный обелиск - Улан-Удэ Live (2016) [FLAC 2.0|48/24|tracks|Scene] <Metal, Rock>
Дата добавления:04 Окт 2016 12:22:32
Размер:1,26 GB
Раздают:
Качают:0
Форум:WEB-DL-Audio

All rights reserved © 2015-2018