TORRENTS45.XYZ

Скачать Изгоняющий дьявола / Экзорцист / The Exorcist (2016) HDTVRip (сезон 1, серии 1-10 из 10) SDI Media


Изгоняющий дьявола / Экзорцист / The Exorcist (2016) HDTVRip (сезон 1, серии 1-10 из 10)
«Every soul is a battlefield»

Производство: США / Morgan Creek Productions, New Neighborhood, 20th Century Fox Television
Жанр: ужасы, триллер

Режиссер: Майкл Нанкин, Джейсон Энслер, Руперт Уайатт
Актеры: Альфонсо Эррера, Бен Дэниелс, Джина Дэвис, Ханна Касулка, Брианна Хоуи, Алан Рак, Музам Маккар, Френсис Гуинан, Мелисса Расселл, Адам Биттерман и др.

Описание:
Одна из самых популярных тем в мировом кинематографе впервые воплощена в сериале. Снятый по мотивам знаменитого романа Уильяма Блэтти фильм “Изгоняющий дьявола” Уильяма Фридкина, признан чуть ли не самым страшным за всю историю. Одноименная телеверсия обещает быть не менее пугающей. Тем более, что вселять страх будут порциями, а не разом. И хотя источники и атмосфера те же, это не римейк, а новая история с неизвестными персонажами. В центре внимания два священнослужителя — каждый со своей точкой зрения, — занимающиеся случаем демонической одержимости.


Дата мировой премьеры: 23 сентября 2016
Дата премьеры в РФ: 24 сентября 2016


Релиз от: qqss44

Продолжительность: ~00:43:00 серия
Качество видео: HDTVRip
Перевод: Многоголосый закадровый, профессиональный - SDI Media по заказу Amedia
Вид субтитров: отдельным файлом
Язык субтитров: русский

Видео: XviD, 720x400 (16:9), ~1342 kbps
Аудио Rus: MP3, 48,0 kHz, 2 ch, 128 kbps — многоголосый закадровый
Аудио Eng: MP3, 48,0 kHz, 2 ch, 128 kbps — оригинал

MediaInfo


Общее
Полное имя : D:\Загрузки\Изгоняющий дьявола (сезон 1) The Exorcist (2016) HDYVRip - Amedia\The.Exorcist.[S01E01].XviD.Amedia.[qqss44].avi
Формат : AVI
Формат/Информация : Audio Video Interleave
Размер файла : 501 Мбайт
Продолжительность : 43 м. 25 с.
Общий поток : 1612 Кбит/сек
Программа кодирования : VirtualDubMod 1.5.10.3 | www.virtualdub-fr.org || (build 2550/release)
Библиотека кодирования : VirtualDubMod build 2550/release

Видео
Идентификатор : 0
Формат : MPEG-4 Visual
Профиль формата : Advanced Simple@L5
Параметр BVOP формата : 2
Параметр QPel формата : Нет
Параметр GMC формата : Без точки перехода
Параметр матрицы формата : Выборочная
Идентификатор кодека : XVID
Идентификатор кодека/Подсказка : XviD
Продолжительность : 43 м. 25 с.
Битрейт : 1342 Кбит/сек
Ширина : 720 пикселей
Высота : 400 пикселей
Соотношение сторон : 16:9
Частота кадров : 25,000 кадров/сек
Цветовое пространство : YUV
Субдискретизация насыщенности : 4:2:0
Битовая глубина : 8 бит
Тип развёртки : Прогрессивная
Метод сжатия : С потерями
Бит/(Пиксели*Кадры) : 0.186
Размер потока : 417 Мбайт (83%)
Библиотека кодирования : XviD 73

Аудио #1
Идентификатор : 1
Формат : MPEG Audio
Версия формата : Version 1
Профиль формата : Layer 3
Режим : Joint stereo
Расширение режима : MS Stereo
Идентификатор кодека : 55
Идентификатор кодека/Подсказка : MP3
Продолжительность : 43 м. 25 с.
Вид битрейта : Постоянный
Битрейт : 128 Кбит/сек
Каналы : 2 канала
Частота : 48,0 КГц
Метод сжатия : С потерями
Размер потока : 39,8 Мбайт (8%)
Выравнивание : Соединение по промежуткам
Продолжительность промежутка : 40 мс. (1,00 видеокадр)
Время предзагрузки промежутка : 504 мс.

Аудио #2
Идентификатор : 2
Формат : MPEG Audio
Версия формата : Version 1
Профиль формата : Layer 3
Режим : Joint stereo
Расширение режима : MS Stereo
Идентификатор кодека : 55
Идентификатор кодека/Подсказка : MP3
Продолжительность : 43 м. 25 с.
Вид битрейта : Постоянный
Битрейт : 128 Кбит/сек
Каналы : 2 канала
Частота : 48,0 КГц
Метод сжатия : С потерями
Размер потока : 39,8 Мбайт (8%)
Выравнивание : Соединение по промежуткам
Продолжительность промежутка : 40 мс. (1,00 видеокадр)
Время предзагрузки промежутка : 504 мс.
Скриншоты:



Все релизы сериала «Изгоняющий дьявола / The Exorcist» на Torrents45.xyz

Смотреть Online

http://moonwalk.cc/serial/64d0c37a597a571f695685878ad381f5/iframe
Детали торрента:
Название:Изгоняющий дьявола / Экзорцист / The Exorcist (2016) HDTVRip (сезон 1, серии 1-10 из 10) SDI Media
Дата добавления:18 Дек 2016 21:53:28
Размер:4,87 GB
Раздают:
Качают:0
Форум:Зарубежные сериалы

All rights reserved © 2015-2018