TORRENTS45.XYZ

Скачать Нечто / The Thing (1982) BDRip [H.264/1080p] [Remastered]


Нечто / The Thing (1982) BDRip [H.264/1080p] [Remastered]
Производство: Universal Pictures, Turman-Foster Company
Жанр: Ужасы, Фантастика, Детектив

Режиссер: Джон Карпентер
Продюсер: Дэвид Фостер, Лоуренс Турман, Стюарт Коэн
Актеры: Курт Рассел, Вилфорд Бримли, T.K. Carter, David Clennon, Кейт Дэвид, Ричард А. Дайсарт, Чарльз Халлахан, Питер Малони, Ричард Мазур, Дональд Моффат...

Описание:
Команде ученых американской исследовательской базы в Антарктике предстоит столкнуться с необъяснимым, чудовищным кошмаром. Отрезанные от всего света полярники вступают в неравную схватку с инопланетной тварью, пробудившейся после тысячелетней спячки во льдах, беспощадным существом, которое проснулось и… проголодалось.


Возраст: 16+ (зрителям, достигшим 16 лет)
Рейтинг MPAA: R (лицам до 17 лет обязательно присутствие взрослого)
Дата мировой премьеры: 25 июня 1982
Дата выхода DVD/Blu-ray релиза: 11 октября 2016

Релиз от: Torrents45.xyz

Продолжительность: 01:48:34
Качество видео: BDRip (batonchik)
Перевод: Профессиональный (многоголосый закадровый, одноголосый)
Субтитры: Русские, Английские

Видео: AVC/H.264, 1920x816, ~12,0 Mbps, High@L4.1
Аудио 1: AC3, 5.1, 384 kbps, 48 kHz | MVO, Киномания - русский
Аудио 2: AC3, 5.1, 384 kbps, 48 kHz | MVO лицензия - русский
Аудио 3: DTS, 5.1, 1509 kbps, 48 kHz, 24-bit | AVO, Гоблин - русский
Аудио 4: DTS, 5.1, 1509 kbps, 48 kHz, 24-bit | Орининал, Английский

h.264 log:

--[Information] [19.09.2016 23:41:54] Standard error stream
---[Information] [19.09.2016 23:42:04] raw [info]: 1920x816p 1:1 @ 24000/1001 fps (cfr)
---[Information] [19.09.2016 23:42:04] x264 [info]: using SAR=1/1
---[Information] [19.09.2016 23:42:04] x264 [info]: using cpu capabilities: MMX2 SSE2Fast SSSE3 SSE4.2 AVX
---[Information] [19.09.2016 23:42:04] x264 [info]: profile High, level 4.1
---[Information] [20.09.2016 9:31:02] x264 [info]: frame I:876 Avg QP:20.07 size:133776
---[Information] [20.09.2016 9:31:02] x264 [info]: frame P:29875 Avg QP:21.07 size: 76606
---[Information] [20.09.2016 9:31:02] x264 [info]: frame B:125431 Avg QP:21.68 size: 58808

---[Information] [20.09.2016 9:31:02] x264 [info]: consecutive B-frames: 1.2% 1.5% 6.4% 7.1% 11.9% 59.1% 5.4% 2.1% 2.6% 2.6%
---[Information] [20.09.2016 9:31:02] x264 [info]: mb I I16..4: 5.7% 84.1% 10.2%
---[Information] [20.09.2016 9:31:02] x264 [info]: mb P I16..4: 0.4% 19.7% 0.8% P16..4: 28.6% 34.0% 8.4% 0.9% 0.1% skip: 7.2%
---[Information] [20.09.2016 9:31:02] x264 [info]: mb B I16..4: 0.0% 6.1% 0.1% B16..8: 39.7% 20.0% 3.2% direct:12.6% skip:18.3% L0:44.2% L1:42.8% BI:13.0%
---[Information] [20.09.2016 9:31:02] x264 [info]: 8x8 transform intra:95.3% inter:53.8%
---[Information] [20.09.2016 9:31:02] x264 [info]: direct mvs spatial:96.5% temporal:3.5%
---[Information] [20.09.2016 9:31:02] x264 [info]: coded y,uvDC,uvAC intra: 97.4% 81.9% 38.1% inter: 55.2% 43.2% 6.4%
---[Information] [20.09.2016 9:31:02] x264 [info]: i16 v,h,dc,p: 26% 17% 13% 43%
---[Information] [20.09.2016 9:31:02] x264 [info]: i8 v,h,dc,ddl,ddr,vr,hd,vl,hu: 7% 6% 10% 11% 15% 13% 13% 12% 14%
---[Information] [20.09.2016 9:31:02] x264 [info]: i4 v,h,dc,ddl,ddr,vr,hd,vl,hu: 12% 6% 6% 9% 15% 14% 13% 11% 13%
---[Information] [20.09.2016 9:31:02] x264 [info]: i8c dc,h,v,p: 38% 27% 19% 16%
---[Information] [20.09.2016 9:31:02] x264 [info]: Weighted P-Frames: Y:13.2% UV:7.9%
---[Information] [20.09.2016 9:31:02] x264 [info]: ref P L0: 45.3% 8.9% 28.2% 15.1% 2.3% 0.1%
---[Information] [20.09.2016 9:31:02] x264 [info]: ref B L0: 78.6% 17.2% 4.1%
---[Information] [20.09.2016 9:31:02] x264 [info]: ref B L1: 86.8% 13.2%
---[Information] [20.09.2016 9:31:02] x264 [info]: kb/s:12013.53
---[Information] [20.09.2016 9:31:02] encoded 156182 frames, 4.42 fps, 12013.53 kb/s
--[Information] [20.09.2016 9:31:05] Final statistics
---[Information] [20.09.2016 9:31:05] Video Bitrate Desired: 12017 kbit/s
---[Information] [20.09.2016 9:31:05] Video Bitrate Obtained (approximate): 12015 kbit/s

Mediainfo:

Общее
Полное имя : \Нечто_Thing.1982.BDRip.1080p.REMASTERED.torrents45.xyzv
Формат : Matroska
Версия формата : Version 2
Размер файла : 12,0 Гбайт
Продолжительность : 1 ч. 48 м.
Общий поток : 15,8 Мбит/сек
Название фильма : Нечто_Thing.1982.BDRip.1080p.REMASTERED.torrents45.xyz />Дата кодирования : UTC 2016-09-23 14:32:56
Программа кодирования : mkvmerge v7.7.0 ('Six Voices') 64bit built on Feb 28 2015 23:39:33
Библиотека кодирования : libebml v1.3.1 + libmatroska v1.4.2

Видео
Идентификатор : 1
Формат : AVC
Формат/Информация : Advanced Video Codec
Профиль формата : High@L4.1
Параметр CABAC формата : Да
Параметр ReFrames формата : 4 кадра
Идентификатор кодека : V_MPEG4/ISO/AVC
Продолжительность : 1 ч. 48 м.
Битрейт : 12,0 Мбит/сек
Ширина : 1920 пикселей
Высота : 816 пикселей
Соотношение сторон : 2,35:1
Режим частоты кадров : Постоянный
Частота кадров : 23,976 (24000/1001) кадра/сек
Цветовое пространство : YUV
Субдискретизация насыщенности : 4:2:0
Битовая глубина : 8 бит
Тип развёртки : Прогрессивная
Бит/(Пиксели*Кадры) : 0.320
Размер потока : 8,87 Гбайт (74%)
Заголовок : Нечто_Thing.1982.BDRip.1080p.REMASTERED.torrents45.xyz />Библиотека кодирования : x264 core 148 r2638 7599210
Настройки программы : cabac=1 / ref=4 / deblock=1:-3:-3 / analyse=0x3:0x133 / me=umh / subme=11 / psy=1 / psy_rd=1.00:0.25 / mixed_ref=1 / me_range=32 / chroma_me=1 / trellis=2 / 8x8dct=1 / cqm=0 / deadzone=6,6 / fast_pskip=0 / chroma_qp_offset=-4 / threads=12 / lookahead_threads=2 / sliced_threads=0 / nr=0 / decimate=0 / interlaced=0 / bluray_compat=0 / constrained_intra=0 / bframes=9 / b_pyramid=2 / b_adapt=2 / b_bias=0 / direct=3 / weightb=1 / open_gop=0 / weightp=2 / keyint=250 / keyint_min=23 / scenecut=40 / intra_refresh=0 / rc_lookahead=40 / rc=2pass / mbtree=1 / bitrate=12017 / ratetol=1.0 / qcomp=0.80 / qpmin=0 / qpmax=69 / qpstep=4 / cplxblur=20.0 / qblur=0.5 / vbv_maxrate=50000 / vbv_bufsize=62500 / nal_hrd=none / filler=0 / ip_ratio=1.10 / aq=1:0.70
Язык : English
Default : Да
Forced : Нет
Цветовой диапазон : Limited
Коэффициенты матрицы : BT.709

Аудио #1
Идентификатор : 2
Формат : AC-3
Формат/Информация : Audio Coding 3
Расширение режима : CM (complete main)
Параметр Endianness формата : Big
Идентификатор кодека : A_AC3
Продолжительность : 1 ч. 48 м.
Вид битрейта : Постоянный
Битрейт : 384 Кбит/сек
Каналы : 6 каналов
Расположение каналов : Front: L C R, Side: L R, LFE
Частота : 48,0 КГц
Частота кадров : 31,250 кадров/сек (1536 spf)
Метод сжатия : С потерями
Размер потока : 298 Мбайт (2%)
Заголовок : MVO - Киномания
Язык : Russian
Default : Да
Forced : Нет

Аудио #2
Идентификатор : 3
Формат : AC-3
Формат/Информация : Audio Coding 3
Расширение режима : CM (complete main)
Параметр Endianness формата : Big
Идентификатор кодека : A_AC3
Продолжительность : 1 ч. 48 м.
Вид битрейта : Постоянный
Битрейт : 384 Кбит/сек
Каналы : 6 каналов
Расположение каналов : Front: L C R, Side: L R, LFE
Частота : 48,0 КГц
Частота кадров : 31,250 кадров/сек (1536 spf)
Метод сжатия : С потерями
Размер потока : 298 Мбайт (2%)
Заголовок : MVO - Лицензия
Язык : Russian
Default : Нет
Forced : Нет

Аудио #3
Идентификатор : 4
Формат : DTS
Формат/Информация : Digital Theater Systems
Режим : 16
Параметр Endianness формата : Big
Идентификатор кодека : A_DTS
Продолжительность : 1 ч. 48 м.
Вид битрейта : Постоянный
Битрейт : 1509 Кбит/сек
Каналы : 6 каналов
Расположение каналов : Front: L C R, Side: L R, LFE
Частота : 48,0 КГц
Частота кадров : 93,750 кадра/сек (512 spf)
Битовая глубина : 24 бит
Метод сжатия : С потерями
Размер потока : 1,14 Гбайт (10%)
Заголовок : AVO - Гоблин
Язык : Russian
Default : Нет
Forced : Нет

Аудио #4
Идентификатор : 5
Формат : DTS
Формат/Информация : Digital Theater Systems
Режим : 16
Параметр Endianness формата : Big
Идентификатор кодека : A_DTS
Продолжительность : 1 ч. 48 м.
Вид битрейта : Постоянный
Битрейт : 1509 Кбит/сек
Каналы : 6 каналов
Расположение каналов : Front: L C R, Side: L R, LFE
Частота : 48,0 КГц
Частота кадров : 93,750 кадра/сек (512 spf)
Битовая глубина : 24 бит
Метод сжатия : С потерями
Размер потока : 1,14 Гбайт (10%)
Заголовок : Оригинал
Язык : English
Default : Нет
Forced : Нет

Текст #1
Идентификатор : 6
Формат : UTF-8
Идентификатор кодека : S_TEXT/UTF8
Идентификатор кодека/Информация : UTF-8 Plain Text
Заголовок : Форс.
Язык : Russian
Default : Да
Forced : Да

Текст #2
Идентификатор : 7
Формат : UTF-8
Идентификатор кодека : S_TEXT/UTF8
Идентификатор кодека/Информация : UTF-8 Plain Text
Заголовок : Гоблин
Язык : Russian
Default : Нет
Forced : Нет

Текст #3
Идентификатор : 8
Формат : UTF-8
Идентификатор кодека : S_TEXT/UTF8
Идентификатор кодека/Информация : UTF-8 Plain Text
Язык : Russian
Default : Нет
Forced : Нет

Текст #4
Идентификатор : 9
Формат : UTF-8
Идентификатор кодека : S_TEXT/UTF8
Идентификатор кодека/Информация : UTF-8 Plain Text
Язык : English
Default : Нет
Forced : Нет

Меню
00:00:00.000 : en:Chapter 01
00:10:22.246 : en:Chapter 02
00:22:10.162 : en:Chapter 03
00:33:01.479 : en:Chapter 04
00:43:22.099 : en:Chapter 05
00:48:58.226 : en:Chapter 06
00:55:01.381 : en:Chapter 07
01:03:07.575 : en:Chapter 08
01:10:10.915 : en:Chapter 09
01:18:42.801 : en:Chapter 10
01:26:37.901 : en:Chapter 11
01:35:57.877 : en:Chapter 12

Дополнительная информация:

NEW 2K Scan Of The Interpositive Supervised And Approved By Director Of Photography Dean Cundey

Рецензия, отзыв:

Эта картина американского режиссёра Джона Карпентера пользовалась в своё время особой популярностью у наших зрителей на видеокассетах — прежде всего, из-за атмосферы ужасов и присутствия на экране невероятного монстра, искусно воссозданного мастером грима Робом Боттином (ему было во время съёмок лишь 22 года!) и руководителем спецэффектов Альбертом Уитлоком. А вот американцы поначалу оказались более строгими по отношению к данной ленте (это сейчас она имеет в imdb очень высокий рейтинг — 8,1 из 10), считая, что прежняя версия 1951 года была всё же пострашнее. Неведомое, внеземное Нечто (многие из критиков отмечали, что вариант 1982 года был сделан, скорее, под влиянием успешного фантастического фильма ужасов «Чужой» Ридли Скотта), проникшее на сей раз на станцию не в Арктике, а в Антарктиде, материализовалось во внешне отвратительное чудовище, а раньше имело вполне человеческий облик, скрываясь внутри кого-то из полярников. И необъяснимый страх заключался в самой ситуации: трудно было вообще отличить человека от Нечто.

Более дорогостоящая постановка Карпентера (она обошлась в $10 млн., что теперь составило бы сумму в размере $24 млн.) оказалась вроде бы ближе к первоисточнику — рассказу Джона У. Кэмбелла-младшего «Кто там?», написанному ещё в конце 30-х годов. Однако режиссёр стремился поразить нагромождением изобретательных трюков, воспроизвести на экране, в первую очередь, эффектное зрелище, производящее сильное впечатление. Но гораздо точнее подспудное ощущение тревоги и загадочности сумела передать тщательно продуманная и умело использованная (тем невероятнее номинирование на позорную премию «Золотая малина»!) электронная музыка итальянца Эннио Морриконе — это довольно редкий случай и для самого маэстро, который всё-таки предпочитает в оркестровке обычные инструменты. Почти во всех остальных картинах Джон Карпентер лично выступает в качестве автора или соавтора музыки, которая нередко воспринимается как отлично подобранный звуковой фон. А в «Нечто» именно прорывающийся сквозь электронную аранжировку печальный мотив (истинный мелодист Морриконе и здесь не мог обойтись без сразу же запоминающихся тактов!) усиливает беспокойство за судьбы людей в их борьбе с внеземной материей и даже ставит под сомнение внешне благополучный финал. Исчезло ли Нечто?!
Скриншоты:

Дополнительные скриншоты:


Смотреть Online

Детали торрента:
Название:Нечто / The Thing (1982) BDRip [H.264/1080p] [Remastered]
Дата добавления:23 Сен 2016 18:27:35
Размер:12 GB
Раздают:1
Качают:0
Форум:Зарубежная Классика (HD, UHD, UHD-LQ)

All rights reserved © 2015-2019