TORRENTS45.XYZ

Скачать Вий (1967) BDRip [H.264]


Вий (1967) BDRip [H.264]
Производство: СССР / Луч, Мосфильм
Жанр: Ужасы, Фэнтези, Драма

Режиссер: Георгий Кропачев, Константин Ершов
Актеры: Леонид Куравлёв, Наталья Варлей, Алексей Глазырин, Николай Кутузов, Вадим Захарченко, Петр Вескляров, Владимир Сальников, Дмитрий Капка, Степан Шкурат, Георгий Сочевко, Николай Яковченко, Николай Панасьев, Николай Юдин, Борислав Брондуков, Николай Степанов, Александра Денисова, Виктор Колпаков

Описание: Студент-философ Хома Брут должен провести несколько ночей у гроба умершей панночки в старой церквушке в далекой деревне. Сможет ли он побороть свой страх, или ему придется столкнуться с нечистой силой?


Возраст: 12+ (зрителям, достигшим 12 лет)

Релиз от: Conchita Wurst
Продолжительность: 01:16:51
Качество видео: BDRip
Перевод: Не требуется
Субтитры: Отсутствуют

Видео: AVC/H.264, 2200 Kbps, 778x576
Аудио: AC3 2.0, 448 Kbps, 48.0 KHz

MediaInfo

Код: выделить все

Общее
Полное имя                               : Вий.mkv
Формат                                   : Matroska
Версия формата                           : Version 1
Размер файла                             : 1,42 Гбайт
Продолжительность                        : 1 ч. 16 м.
Общий поток                              : 2651 Кбит/сек
Дата кодирования                         : UTC 2016-09-06 06:02:28
Программа кодирования                    : mkvmerge v2.4.1 ('Use Me') built on Dec  5 2008 18:30:05
Библиотека кодирования                   : libebml v0.7.7 + libmatroska v0.8.1

Видео
Идентификатор                            : 1
Формат                                   : AVC
Формат/Информация                        : Advanced Video Codec
Профиль формата                          : High@L4.1
Параметр CABAC формата                   : Да
Параметр ReFrames формата                : 10 кадров
Идентификатор кодека                     : V_MPEG4/ISO/AVC
Продолжительность                        : 1 ч. 16 м.
Битрейт                                  : 2200 Кбит/сек
Ширина                                   : 778 пикселей
Высота                                   : 576 пикселей
Соотношение сторон                       : 4:3
Режим частоты кадров                     : Постоянный
Частота кадров                           : 23,976 (24000/1001) кадра/сек
Цветовое пространство                    : YUV
Субдискретизация насыщенности            : 4:2:0
Битовая глубина                          : 8 бит
Тип развёртки                            : Прогрессивная
Бит/(Пиксели*Кадры)                      : 0.205
Размер потока                            : 1,15 Гбайт (81%)
Заголовок                                : Вий (1967)
Библиотека кодирования                   : x264 core 148 r2638 7599210
Настройки программы                      : cabac=1 / ref=10 / deblock=1:-3:-3 / analyse=0x3:0x133 / me=umh / subme=10 / psy=1 / psy_rd=1.00:0.10 / mixed_ref=1 / me_range=48 / chroma_me=1 / trellis=2 / 8x8dct=1 / cqm=0 / deadzone=21,11 / fast_pskip=0 / chroma_qp_offset=-3 / threads=6 / lookahead_threads=1 / sliced_threads=0 / nr=0 / decimate=1 / interlaced=0 / bluray_compat=0 / constrained_intra=0 / bframes=5 / b_pyramid=2 / b_adapt=2 / b_bias=0 / direct=3 / weightb=1 / open_gop=0 / weightp=2 / keyint=240 / keyint_min=22 / scenecut=40 / intra_refresh=0 / rc_lookahead=40 / rc=2pass / mbtree=1 / bitrate=2200 / ratetol=1.0 / qcomp=0.60 / qpmin=10 / qpmax=51 / qpstep=4 / cplxblur=20.0 / qblur=0.5 / ip_ratio=1.40 / aq=1:1.00
Язык                                     : Russian
Default                                  : Да
Forced                                   : Нет

Аудио
Идентификатор                            : 2
Формат                                   : AC-3
Формат/Информация                        : Audio Coding 3
Расширение режима                        : CM (complete main)
Параметр Endianness формата              : Big
Идентификатор кодека                     : A_AC3
Продолжительность                        : 1 ч. 16 м.
Вид битрейта                             : Постоянный
Битрейт                                  : 448 Кбит/сек
Каналы                                   : 2 канала
Расположение каналов                     : Front: L R
Частота                                  : 48,0 КГц
Частота кадров                           : 31,250 кадров/сек (1536 spf)
Метод сжатия                             : С потерями
Размер потока                            : 246 Мбайт (17%)
Заголовок                                : AC3 (Оригинал)
Язык                                     : Russian
Default                                  : Да
Forced                                   : Нет

Дополнительная информация

» Фильм снят по одноименной повести Николая Гоголя.
» В фильме задействованы 50 ворон (пойманых в районе студии) и 9 дрессированных черных кошек.
» Александра Завьялова изначально утвержденная на роль Панночки, сразу после начала съемок тяжело заболела. В итоге будущий муж актрисы, режиссер Резо Эсадзе требовал, чтоб она отказалась от роли.
» Идея экранизации «Вия» принадлежит известному советскому режиссёру, на тот момент директору кинокомпании Мосфильм, Ивану Пырьеву. Лишь по причине острой нехватки времени он предложил снять картину двум учащимся Высших режиссерских курсов Союза кинематографистов СССР Георгию Кропачеву и Константину Ершову.
» Съемки фильм производились в Богородчанском районе Ивано-Франковской области (ныне Украина). Однако отснятый на натуре материал разочаровал руководство Мосфильма, оказавшись «слишком реалистическим». Так к работе было решено привлечь известного режиссёра кино-сказочника Александра Птушко. В результате, много материала отснятого Ершовым и Кропачевым было вырезано, ряд идей так и остались невоплощёнными. Изменён был и облик главного чудовища фильма — Вия.
» Первоначально на роль Хомы Брута планировался Михаил Кокшенов.
» «Полет» Ведьмы на Хоме был снят в павильоне. Шест, замаскированный под метлу с горизонтальной планкой, на которой сидел Николай Кутузов, крепился на небольшой высоте. Исполнитель роли Хомы Леонид Куравлёв повисал также на этой планке и перебирал в воздухе ногами, имитируя бег.
» В реквизите фильма было заготовлено три гроба Панночки. Один настоящий, для съемок лежащей в нем Натальи Варлей. Два других — для сцен полетов по церкви: небольшой и закрытый и открытый, со специальной стойкой, снабженной поясом монтажных рабочих удерживавшим актрису от падения, закрепленный в подвешенном состоянии на шести металлических тросах.
» Во время съемок полета, Наталья Варлей однажды выпала из гроба. Только реакция Леонида Куравлёва, успевшего подхватить актрису, спасла ее от травм. Тем не менее этот случай породил множественные слухи о смерти Варлей.
» По задумке Георгия Кропачева сам Вий должен был выглядеть более антропоморфно — гигантским немощным стариком, которого поддерживали всевозможные инфернальные существа.
» Петух, кукарекающий в фильме ранее был задействован Птушко при съемках фильма «Сказка о царе Салтане».
» Костюм Вия был очень тяжелый и никто из актеров не мог в нем нормально двигаться, поэтому эту роль пришлось сыграть специально приглашенному штангисту.
» Когда во время одной из финальных сцен героиня Натальи Варлей трясется от злости, актриса стоит на специальной вибрирующей платформе.
Скриншоты:

Все релизы "Вий" на Torrents45.xyz

Смотреть Online

Детали торрента:
Название:Вий (1967) BDRip [H.264]
Дата добавления:06 Сен 2016 09:10:19
Размер:1,42 GB
Раздают:5
Качают:0
Форум:Отечественная Классика (HD*Rip/LQ, DVDRip, SATRip, VHSRip)

All rights reserved © 2015-2019