TORRENTS45.XYZ

Скачать Соседи. На тропе войны 2 / Neighbors 2: Sorority Rising (2016) WEB-DLRip [480p] iPod


Соседи. На тропе войны 2 / Neighbors 2: Sorority Rising (2016) WEB-DLRip [480p] iPod
«New neighbors»

Год выпуска: 2016
Производство: США
Жанр: Комедия
Продолжительность: 01:32:44

Перевод: Дублированный (iTunes)
Субтитры: Нет
Режиссер: Николас Столлер
Актеры: Сет Роген, Зак Эфрон, Роуз Бирн, Хлоя Грейс Морец, Айк Баринхолц, Кирси Клемонс, Дэйв Франко, Джеррод Кармайкл, Кристофер Минц-Плассе, Бини Фелдштейн

Мировая премьера: 26 апреля 2016



Описание: На этот раз в дом по соседству с Маком и Келли въезжает университетский женский клуб. Чтобы разобраться с новыми соседями, которые не дают им покоя, Мак и Келли решают обратиться за помощью к их бывшему врагу — Тедди Сандерсу.
Качество: WEB-DLRip 480p
Контейнер: M4V
Видео: H.264, 640x354 анаморф 852х354, 2.40:1, 1 300 Kbps, 23.976 fps

Аудио 1: Русский/Дублированный (iTunes), AAC / 2.0 / 125 Kbps / 48.0 KHz
Аудио 2: Английский/Оригинальная дорожка , AAC / 2.0 / 125 Kbps / 48.0 KHz

iTunes Meta Tags

Код:

Sort Name: Neighbors 2: Sorority Rising
XID: Apple:vendor_id:2016-891509
contentID: 1109606111
Copyright: © 2016 Universal Studios. All Rights Reserved.
Screenwriters: Эндрю Дж. Коэн, Брендан О’Брайэн, Николас Столлер
Producers: Эван Голдберг, Сет Роген, Джеймс Уивер
Director: Николас Столлер
Cast: Сет Роген, Зак Эфрон, Роуз Бирн, Хлоя Грейс Морец, Айк Баринхолц, Кирси Клемонс, Дэйв Франко, Джеррод Кармайкл, Кристофер Минц-Плассе, Бини Фелдштейн
Studio: Universal Pictures
Rating: 5
Long Description: На этот раз в дом по соседству с Маком и Келли въезжает университетский женский клуб. Чтобы разобраться с новыми соседями, которые не дают им покоя, Мак и Келли решают обратиться за помощью к их бывшему врагу - Тедди Сандерсу.
Description: На этот раз в дом по соседству с Маком и Келли въезжает университетский женский клуб. Чтобы разобраться с новыми соседями, которые не дают им покоя, Мак и Келли решают обратиться за помощью к их бывшему врагу - Тедди Сандерсу.
Release Date: 2016-04-26T08:00:00Z
Genre: Comedy
Artist: Nicholas Stoller
Name: Neighbors 2: Sorority Rising

MediaInfo

Код:

General
Complete name : /Users/imac/HandBrake/Neighbors.2.(480p).(pk).m4v
Format : MPEG-4
Codec ID : M4V
File size : 1.01 GiB
Duration : 1h 32mn
Overall bit rate mode : Variable
Overall bit rate : 1 558 Kbps
Movie name : Neighbors 2: Sorority Rising
Performer : Nicholas Stoller
Director : Николас Столлер
Actor : Сет Роген / Зак Эфрон / Роуз Бирн / Хлоя Грейс Морец / Айк Баринхолц / Кирси Клемонс / Дэйв Франко / Джеррод Кармайкл / Кристофер Минц-Плассе / Бини Фелдштейн
Screenplay by : Эндрю Дж. Коэн / Брендан О’Брайэн / Николас Столлер
Producer : Эван Голдберг / Сет Роген / Джеймс Уивер
Production studio : Universal Pictures
Genre : Comedy
ContentType : Short Film
Description : На этот раз в дом по соседству с Маком и Келли въезжает университетский женский клуб. Чтобы разобраться с новыми соседями, которые не дают им покоя, Мак и Келли решают обратиться за помощью к их бывшему врагу - Тедди Сандерсу.
Recorded date : UTC 2016-04-26 08:00:00
Encoded date : UTC 2016-08-24 14:51:43
Tagged date : UTC 2016-08-24 14:52:32
Copyright : © 2016 Universal Studios. All Rights Reserved.
Cover : Yes
Rating : None
Title/Sort : Neighbors 2: Sorority Rising
LongDescription : На этот раз в дом по соседству с Маком и Келли въезжает университетский женский клуб. Чтобы разобраться с новыми соседями, которые не дают им покоя, Мак и Келли решают обратиться за помощью к их бывшему врагу - Тедди Сандерсу.
AppleStoreCatalogID : 1109606111
Vendor : Apple:vendor_id:2016-891509
ContentRating : mpaa|R|400|

Video #1
ID : 1
Format : AVC
Format/Info : Advanced Video Codec
Format profile : Baseline@L3
Format settings, CABAC : No
Format settings, ReFrames : 2 frames
Codec ID : avc1
Codec ID/Info : Advanced Video Coding
Duration : 1h 32mn
Bit rate : 1 300 Kbps
Width : 640 pixels
Height : 354 pixels
Display aspect ratio : 2.40:1
Frame rate mode : Variable
Frame rate : 23.976 fps
Minimum frame rate : 23.810 fps
Maximum frame rate : 24.390 fps
Color space : YUV
Chroma subsampling : 4:2:0
Bit depth : 8 bits
Scan type : Progressive
Bits/(Pixel*Frame) : 0.239
Stream size : 862 MiB (83%)
Title : Main Program
Writing library : x264 core 142 r2479 dd79a61
Encoding settings : cabac=0 / ref=2 / deblock=1:0:0 / analyse=0x1:0x111 / me=umh / subme=6 / psy=1 / psy_rd=1.00:0.00 / mixed_ref=1 / me_range=16 / chroma_me=1 / trellis=0 / 8x8dct=0 / cqm=0 / deadzone=21,11 / fast_pskip=1 / chroma_qp_offset=-2 / threads=36 / lookahead_threads=2 / sliced_threads=0 / nr=0 / decimate=1 / interlaced=0 / bluray_compat=0 / constrained_intra=0 / bframes=0 / weightp=0 / keyint=240 / keyint_min=24 / scenecut=40 / intra_refresh=0 / rc_lookahead=40 / rc=2pass / mbtree=1 / bitrate=1300 / ratetol=1.0 / qcomp=0.60 / qpmin=0 / qpmax=69 / qpstep=4 / cplxblur=20.0 / qblur=0.5 / vbv_maxrate=5000 / vbv_bufsize=5000 / nal_hrd=none / filler=0 / ip_ratio=1.40 / aq=1:1.00
Language : English
Encoded date : UTC 2016-08-24 14:51:43
Tagged date : UTC 2016-08-24 14:51:46
Color range : Limited
Color primaries : BT.709
Transfer characteristics : BT.709
Matrix coefficients : BT.709

Video #2
ID : 5
Format : JPEG
Codec ID : jpeg
Duration : 1h 32mn
Bit rate mode : Variable
Bit rate : 1 476 bps
Width : 640 pixels
Height : 265 pixels
Display aspect ratio : 2.40:1
Frame rate mode : Variable
Frame rate : 0.004 fps
Minimum frame rate : 0.003 fps
Maximum frame rate : 0.006 fps
Color space : YUV
Chroma subsampling : 4:2:0
Bit depth : 8 bits
Compression mode : Lossy
Bits/(Pixel*Frame) : 2.176
Stream size : 901 KiB (0%)
Title : Chapter Images
Language : English
Encoded date : UTC 2016-08-24 14:51:58
Tagged date : UTC 2016-08-24 14:51:59

Audio #1
ID : 2
Format : AAC
Format/Info : Advanced Audio Codec
Format profile : LC
Codec ID : 40
Duration : 1h 32mn
Bit rate mode : Variable
Bit rate : 125 Kbps
Maximum bit rate : 195 Kbps
Channel(s) : 2 channels
Channel positions : Front: L R
Sampling rate : 48.0 KHz
Compression mode : Lossy
Stream size : 82.8 MiB (8%)
Title : Russian Stereo
Language : Russian
Encoded date : UTC 2016-08-24 14:51:43
Tagged date : UTC 2016-08-24 14:51:55

Audio #2
ID : 3
Format : AAC
Format/Info : Advanced Audio Codec
Format profile : LC
Codec ID : 40
Duration : 1h 32mn
Bit rate mode : Variable
Bit rate : 125 Kbps
Maximum bit rate : 203 Kbps
Channel(s) : 2 channels
Channel positions : Front: L R
Sampling rate : 48.0 KHz
Compression mode : Lossy
Stream size : 82.8 MiB (8%)
Title : English Stereo
Language : English
Encoded date : UTC 2016-08-24 14:51:43
Tagged date : UTC 2016-08-24 14:51:55

Menu #1
00:00:00.000 : 1
00:06:32.000 : 2
00:09:52.000 : 3
00:13:07.000 : 4
00:17:39.000 : 5
00:22:15.000 : 6
00:27:37.000 : 7
00:31:58.000 : 8
00:38:37.000 : 9
00:44:46.000 : 10
00:50:44.000 : 11
00:54:34.000 : 12
01:00:56.000 : 13
01:04:16.000 : 14
01:08:28.000 : 15
01:12:56.000 : 16
01:16:36.000 : 17
01:20:47.000 : 18
01:23:21.000 : 19
01:26:05.000 : 20

Menu #2
ID : 4
Codec ID : text
Duration : 1h 32mn
Language : English
Encoded date : UTC 2016-08-24 14:51:55
Tagged date : UTC 2016-08-24 14:51:55
00:00:00.000 : 1
00:06:32.000 : 2
00:09:52.000 : 3
00:13:07.000 : 4
00:17:39.000 : 5
00:22:15.000 : 6
00:27:37.000 : 7
00:31:58.000 : 8
00:38:37.000 : 9
00:44:46.000 : 10
00:50:44.000 : 11
00:54:34.000 : 12
01:00:56.000 : 13
01:04:16.000 : 14
01:08:28.000 : 15
01:12:56.000 : 16
01:16:36.000 : 17
01:20:47.000 : 18
01:23:21.000 : 19
01:26:05.000 : 20
Bit rate mode : VBR

x264 лог

Код:

x264 [info]: frame I:2650  Avg QP:16.92  size: 29386
x264 [info]: frame P:130747 Avg QP:19.31  size:  6319
x264 [info]: mb I  I16..4: 16.8%  0.0% 83.2%
x264 [info]: mb P  I16..4:  1.3%  0.0%  3.1%  P16..4: 44.2% 21.0%  8.7%  0.0%  0.0%    skip:21.6%
x264 [info]: coded y,uvDC,uvAC intra: 68.0% 85.3% 65.8% inter: 23.9% 23.0% 7.0%
x264 [info]: i16 v,h,dc,p: 51% 14%  7% 28%
x264 [info]: i4 v,h,dc,ddl,ddr,vr,hd,vl,hu: 41% 12% 12%  5%  6%  8%  5%  7%  4%
x264 [info]: i8c dc,h,v,p: 41% 14% 36%  9%
x264 [info]: ref P L0: 72.9% 27.1%
x264 [info]: kb/s:1300.01

Скриншоты:





Релиз подготовлен для просмотра на Apple TV, iPad, iPhone, iPod Touch.
Для просмотра данного релиза на компьютере с ОС Windows рекомендуется использовать VLC media player

Смотреть Online

http://moonwalk.cc/video/029bc74f266de57a/iframe
Детали торрента:
Название:Соседи. На тропе войны 2 / Neighbors 2: Sorority Rising (2016) WEB-DLRip [480p] iPod
Дата добавления:24 Авг 2016 18:06:56
Размер:1,01 GB
Раздают:
Качают:0
Форум:Зарубежное видео для устройств Apple

All rights reserved © 2015-2018