TORRENTS45.XYZ

Скачать Fatal Embrace - Slaughter To Survive (2015) [FLAC|Lossless|image + .cue] <Thrash Metal>


Fatal Embrace - Slaughter To Survive (2015)
Год: 2015
Жанр: Thrash Metal
Страна: Germany
Издание: Iron Shield Records - ISR 039-15/C
Продолжительность: 00:47:53

Кодек: FLAC
Битрейт: Lossless
Тип рипа: image + .cue

Треклист:
01. The Upcoming Cruelty (Intro) 01:23
02. Revelation 04:42
03. Hellhounds 04:13
04. Dungeons of Dread 04:06
05. Enslaved And Fallen 05:36
06. The Order To Kill 02:56
07. Penetrate the Night 05:09
08. Stay Hungry (Twisted Sister cover) 02:39
09. Possession 04:40
10. Slaughter To Survive 04:53
11. Captured In Spite 02:49
12. From The Ashes 04:48

Дополнительная информация:

Dirk "Heiländer" Heiland - vocals
Ronald Schulze - bass
Pulverizatör - drums
Spezi - guitars
Tobias - guitars

Отчёт EAC:

Код:

Exact Audio Copy V1.1 from 23. June 2015

Отчёт EAC об извлечении, выполненном 6. августа 2016, 12:29

Fatal Embrace / Slaughter To Survive

Дисковод: HL-DT-STDVDRAM GTA0N   Adapter: 1  ID: 0

Режим чтения                 : Достоверность
Использование точного потока : Да
Отключение кэша аудио        : Да
Использование указателей C2  : Нет

Коррекция смещения при чтении                     : 102
Способность читать области Lead-in и Lead-out     : Нет
Заполнение пропущенных сэмплов тишиной            : Да
Удаление блоков с тишиной в начале и конце        : Нет
При вычислениях CRC использовались нулевые сэмплы : Да
Интерфейс                                         : Встроенный Win32-интерфейс для Win NT/2000

Выходной формат          : Пользовательский кодировщик
Выбранный битрейт        : 768 kBit/s
Качество                 : Высокий
Добавление ID3-тега      : Нет
Утилита сжатия           : C:\Program Files (x86)\Exact Audio Copy\FLAC\FLAC.EXE
Дополнительные параметры : -6 -V -T "ARTIST=%artist%" -T "TITLE=%title%" -T "ALBUM=%albumtitle%" -T "DATE=%year%" -T "TRACKNUMBER=%tracknr%" -T "GENRE=%genre%" -T "COMMENT=%comment%" -T "BAND=%albuminterpret%" -T "ALBUMARTIST=%albuminterpret%" -T "COMPOSER=%composer%" %haslyrics%--tag-from-file=LYRICS="%lyricsfile%"%haslyrics% -T "DISCNUMBER=%cdnumber%" -T "TOTALDISCS=%totalcds%" -T "TOTALTRACKS=%numtracks%" %hascover%--picture="%coverfile%"%hascover% %source% -o %dest%

TOC извлечённого CD

     Трек |   Старт  | Длительность | Начальный сектор | Конечный сектор
    ---------------------------------------------------------------------
       1  |  0:00.00 |    1:22.41   |           0      |       6190
       2  |  1:22.41 |    4:41.34   |        6191      |      27299
       3  |  6:04.00 |    4:13.00   |       27300      |      46274
       4  | 10:17.00 |    4:06.00   |       46275      |      64724
       5  | 14:23.00 |    5:36.00   |       64725      |      89924
       6  | 19:59.00 |    2:56.00   |       89925      |     103124
       7  | 22:55.00 |    5:09.00   |      103125      |     126299
       8  | 28:04.00 |    2:39.00   |      126300      |     138224
       9  | 30:43.00 |    4:40.00   |      138225      |     159224
      10  | 35:23.00 |    4:53.00   |      159225      |     181199
      11  | 40:16.00 |    2:49.00   |      181200      |     193874
      12  | 43:05.00 |    4:48.00   |      193875      |     215474

Характеристики диапазона извлечения и сообщения об ошибках

Выбранный диапазон

     Имя файла C:\Users\магазин\Music\Fatal Embrace - Slaughter To Survive.wav

     Пиковый уровень 96.6 %
     Скорость извлечения 4.0 X
     Качество диапазона 100.0 %
     CRC копии C9DAD80D
     Копирование... OK

Ошибок не произошло

AccurateRip: сводка

Трек  1  отсутствует в базе данных
Трек  2  отсутствует в базе данных
Трек  3  отсутствует в базе данных
Трек  4  отсутствует в базе данных
Трек  5  отсутствует в базе данных
Трек  6  отсутствует в базе данных
Трек  7  отсутствует в базе данных
Трек  8  отсутствует в базе данных
Трек  9  отсутствует в базе данных
Трек 10  отсутствует в базе данных
Трек 11  отсутствует в базе данных
Трек 12  отсутствует в базе данных

Ни одного трека нет в базе AccurateRip

Конец отчёта

---- CUETools DB Plugin V2.1.6

[CTDB TOCID: dFxmycZTTx92CmOXrGyDNKcpI.w-] found
Submit result: dFxmycZTTx92CmOXrGyDNKcpI.w- has been confirmed
Track | CTDB Status
  1   | (1/1) Accurately ripped
  2   | (1/1) Accurately ripped
  3   | (1/1) Accurately ripped
  4   | (1/1) Accurately ripped
  5   | (1/1) Accurately ripped
  6   | (1/1) Accurately ripped
  7   | (1/1) Accurately ripped
  8   | (1/1) Accurately ripped
  9   | (1/1) Accurately ripped
 10   | (1/1) Accurately ripped
 11   | (1/1) Accurately ripped
 12   | (1/1) Accurately ripped

Cue Sheet (.cue):

Код:

REM GENRE "Thrash Metal"
REM DATE 2015
REM DISCID AC0B390C
REM COMMENT "ExactAudioCopy v1.1"
PERFORMER "Fatal Embrace"
TITLE "Slaughter To Survive"
FILE "Fatal Embrace - Slaughter To Survive.flac" WAVE
  TRACK 01 AUDIO
    TITLE "The Upcoming Cruelty (Intro)"
    PERFORMER "Fatal Embrace"
    INDEX 01 00:00:00
  TRACK 02 AUDIO
    TITLE "Revelation"
    PERFORMER "Fatal Embrace"
    INDEX 01 01:22:41
  TRACK 03 AUDIO
    TITLE "Hellhounds"
    PERFORMER "Fatal Embrace"
    INDEX 01 06:04:00
  TRACK 04 AUDIO
    TITLE "Dungeons Of Dread"
    PERFORMER "Fatal Embrace"
    INDEX 01 10:17:00
  TRACK 05 AUDIO
    TITLE "Enslaved And Fallen"
    PERFORMER "Fatal Embrace"
    INDEX 00 14:22:73
    INDEX 01 14:23:00
  TRACK 06 AUDIO
    TITLE "The Order To Kill "
    PERFORMER "Fatal Embrace"
    INDEX 01 19:59:00
  TRACK 07 AUDIO
    TITLE "Penetrate the Night"
    PERFORMER "Fatal Embrace"
    INDEX 01 22:55:00
  TRACK 08 AUDIO
    TITLE "Stay Hungry"
    PERFORMER "Fatal Embrace"
    INDEX 01 28:04:00
  TRACK 09 AUDIO
    TITLE "Possession"
    PERFORMER "Fatal Embrace"
    INDEX 01 30:43:00
  TRACK 10 AUDIO
    TITLE "Slaughter To Survive"
    PERFORMER "Fatal Embrace"
    INDEX 01 35:23:00
  TRACK 11 AUDIO
    TITLE "Captured In Spite"
    PERFORMER "Fatal Embrace"
    INDEX 01 40:16:00
  TRACK 12 AUDIO
    TITLE "From The Ashes"
    PERFORMER "Fatal Embrace"
    INDEX 00 43:04:74
    INDEX 01 43:05:00

Отчёт auCDtect Task manager:

Код:

-----------------------

DON'T MODIFY THIS FILE

-----------------------

PERFORMER: auCDtect Task Manager, ver. 1.6.0 RC1 build 1.6.0.1
Copyright (c) 2008-2010 y-soft. All rights reserved
http://y-soft.org

ANALYZER: auCDtect: CD records authenticity detector, version 0.8.2
Copyright (c) 2004 Oleg Berngardt. All rights reserved.
Copyright (c) 2004 Alexander Djourik. All rights reserved.

FILE: Fatal Embrace - Slaughter To Survive.flac
  Size: 380743228 Hash: 065FFBF0FBC42CA88D3BA73FF085601F Accuracy: -m0
  Conclusion: CDDA 100%
  Signature: 70F7DB4299ACA636800D07EDC179E7BF8CED2DF6
YouTube


Поглощение/вытеснение
Только с согласия релизера

Pashketan
Детали торрента:
Название:Fatal Embrace - Slaughter To Survive (2015) [FLAC|Lossless|image + .cue] <Thrash Metal>
Дата добавления:18 Авг 2016 23:15:58
Размер:370 MB
Раздают:
Качают:0
Форум:Metal (Lossless)

All rights reserved © 2015-2018