TORRENTS45.XYZ

Скачать Несостоявшийся вождь. Георгий Маленков (2005) DVB


Несостоявшийся вождь. Георгий Маленков (2005) DVB
Телекомпания: Россия, Студия "Вертов и Ко"
Жанр: Документальный

Участники: Режиссер: Петр Зеленов

Описание:
Долгие годы Георгия Маленкова и Никиту Хрущева связывала дружба, причем "небожители" общались не только лично. Довольно часто виделись и их семьи, чему способствовало то обстоятельство, что они жили в одном доме на улице Грановского, а их дачи разделял всего лишь невысокий забор. После смерти Сталина Маленкову досталось правительство, а Хрущеву - партия. В этот ответственный для СССР момент и возникла трещина в их многолетней дружбе. Началась война партии с правительством за власть. Не проиграй в ней Маленков, неизвестно, в какой стране мы бы жили сегодня...
Для справки
Маленков Георгий Максимилианович (8 января 1902 - 14 января 1988) - советский государственный и партийный деятель, генерал-лейтенант, Герой Социалистического Труда. Учился в МВТУ имени Н.Э.Баумана (не окончил). В 1919 году вступил в Красную армию, был политработником эскадрона, полка, бригады, политуправления Восточного и Туркестанского фронтов. После смерти Сталина 5 мая 1953 стал председателем Совета министров СССР и фактическим руководителем государства, но вскоре был смещен Н.С. Хрущевым.

Продолжительность: 00:45:28
Качество видео: DVB

Видео: AVC/H.264, 704х528, ~1200 kb/s
Аудио: AAC, 2 ch, 96 kb/s, VBR

Mediainfo:

Код:

Общее
Полное имя                               : Несостоявшийся вождь. Георгий Маленков.mp4
Формат                                   : MPEG-4
Профиль формата                          : Base Media / Version 2
Идентификатор кодека                     : mp42
Размер файла                             : 422 Мбайт
Продолжительность                        : 45 м.
Режим общего битрейта                    : Переменный
Общий поток                              : 1298 Кбит/сек
Дата кодирования                         : UTC 2012-08-12 16:40:16
Дата пометки                             : UTC 2012-08-12 16:40:16

Видео
Идентификатор                            : 1
Формат                                   : AVC
Формат/Информация                        : Advanced Video Codec
Профиль формата                          : High@L3.0
Параметр CABAC формата                   : Да
Параметр ReFrames формата                : 2 кадра
Параметр GOP формата                     : M=3, N=75
Идентификатор кодека                     : avc1
Идентификатор кодека/Информация          : Advanced Video Coding
Продолжительность                        : 45 м.
Вид битрейта                             : Постоянный
Битрейт                                  : 1200 Кбит/сек
Ширина                                   : 704 пикселя
Высота                                   : 528 пикселей
Соотношение сторон                       : 4:3
Режим частоты кадров                     : Постоянный
Частота кадров                           : 25,000 кадров/сек
Цветовое пространство                    : YUV
Субдискретизация насыщенности            : 4:2:0
Битовая глубина                          : 8 бит
Тип развёртки                            : Прогрессивная
Бит/(Пиксели*Кадры)                      : 0.129
Размер потока                            : 390 Мбайт (92%)
Язык                                     : English
Дата кодирования                         : UTC 2012-08-12 16:40:16
Дата пометки                             : UTC 2012-08-12 16:40:16

Аудио
Идентификатор                            : 2
Формат                                   : AAC
Формат/Информация                        : Advanced Audio Codec
Профиль формата                          : HE-AAC / LC
Идентификатор кодека                     : 40
Продолжительность                        : 45 м.
Вид битрейта                             : Переменный
Битрейт                                  : 96,0 Кбит/сек
Максимальный битрейт                     : 116 Кбит/сек
Каналы                                   : 2 канала
Расположение каналов                     : Front: L R
Частота                                  : 48,0 КГц / 24,0 КГц
Метод сжатия                             : С потерями
Размер потока                            : 30,8 Мбайт (7%)
Язык                                     : English
Дата кодирования                         : UTC 2012-08-12 16:40:16
Дата пометки                             : UTC 2012-08-12 16:40:16
Скриншоты:


Детали торрента:
Название:Несостоявшийся вождь. Георгий Маленков (2005) DVB
Дата добавления:13 Авг 2016 23:44:34
Размер:422 MB
Раздают:
Качают:0
Форум:Личности в истории

All rights reserved © 2015-2019