TORRENTS45.XYZ

Скачать Крылья России. Холодная война. Битва над океаном (2004) DVB


Крылья России. Холодная война. Битва над океаном (2004) DVB
Телекомпания: Россия, Студия "Крылья России"
Жанр: Документальный

Участники: Режиссер-постановщик: Александр Славин

Описание:
Одним из театров боевых действий "холодной войны" был Мировой океан. Над ним авианосные ударные группы НАТО несли боевое дежурство с ядерным оружием на борту. Для того, чтобы держать под контролем полеты натовских пилотов, необходимо было знать, где находятся американские авианосцы. Стратегические бомбардировщики Ту-95 стали нашим ответом противнику. Они выполняли боевую задачу в небе над океаном. Перелеты через океан пилоты между собой называли "полетом за угол" - действительно, так выглядела на карте траектория их боевого рейса, в ходе которого наш летчик не должен был пролететь ни над одной европейской страной. Маршрут проходил только над океанами. Если в полете происходила нештатная ситуация, пилот не мог рассчитывать ни на чью помощь. Поэтому обеспечение безопасности воздушных границ стоило нескольких человеческих жизней. Никто не знает об этих героях, павших в неведомых миру битвах "холодной" войны.

Продолжительность: 00:44:15
Качество видео: DVB
Вид субтитров: Вшитые (неотключаемые)

Видео: AVC/H.264, 704х528, ~1200 kb/s
Аудио: AAC, 2 ch, 96 kb/s, VBR

Mediainfo:

Код:

Общее
Полное имя                               : Крылья России_Холодная война_Битва над океаном.mp4
Формат                                   : MPEG-4
Профиль формата                          : Base Media / Version 2
Идентификатор кодека                     : mp42
Размер файла                             : 411 Мбайт
Продолжительность                        : 44 м.
Режим общего битрейта                    : Переменный
Общий поток                              : 1298 Кбит/сек
Дата кодирования                         : UTC 2012-02-11 11:34:53
Дата пометки                             : UTC 2012-02-11 11:34:53

Видео
Идентификатор                            : 1
Формат                                   : AVC
Формат/Информация                        : Advanced Video Codec
Профиль формата                          : High@L3.0
Параметр CABAC формата                   : Да
Параметр ReFrames формата                : 2 кадра
Параметр GOP формата                     : M=3, N=75
Идентификатор кодека                     : avc1
Идентификатор кодека/Информация          : Advanced Video Coding
Продолжительность                        : 44 м.
Вид битрейта                             : Постоянный
Битрейт                                  : 1200 Кбит/сек
Ширина                                   : 704 пикселя
Высота                                   : 528 пикселей
Соотношение сторон                       : 4:3
Режим частоты кадров                     : Постоянный
Частота кадров                           : 25,000 кадров/сек
Цветовое пространство                    : YUV
Субдискретизация насыщенности            : 4:2:0
Битовая глубина                          : 8 бит
Тип развёртки                            : Прогрессивная
Бит/(Пиксели*Кадры)                      : 0.129
Размер потока                            : 380 Мбайт (92%)
Язык                                     : English
Дата кодирования                         : UTC 2012-02-11 11:34:53
Дата пометки                             : UTC 2012-02-11 11:34:53

Аудио
Идентификатор                            : 2
Формат                                   : AAC
Формат/Информация                        : Advanced Audio Codec
Профиль формата                          : HE-AAC / LC
Идентификатор кодека                     : 40
Продолжительность                        : 44 м.
Вид битрейта                             : Переменный
Битрейт                                  : 96,0 Кбит/сек
Максимальный битрейт                     : 185 Кбит/сек
Каналы                                   : 2 канала
Расположение каналов                     : Front: L R
Частота                                  : 48,0 КГц / 24,0 КГц
Метод сжатия                             : С потерями
Размер потока                            : 30,0 Мбайт (7%)
Язык                                     : English
Дата кодирования                         : UTC 2012-02-11 11:34:53
Дата пометки                             : UTC 2012-02-11 11:34:53
Скриншоты:


Все одноименные релизы в Клубе
Детали торрента:
Название:Крылья России. Холодная война. Битва над океаном (2004) DVB
Дата добавления:12 Авг 2016 20:45:02
Размер:411 MB
Раздают:1
Качают:0
Форум:Авиация

All rights reserved © 2015-2018