TORRENTS45.XYZ

Скачать Jimmy Jones - Jimmy Jones Trio (1954) Remaster, 2014, Sony Music[FLAC|Lossless|image + .cue] <Mainstream Jazz, Piano Jazz>


Jimmy Jones - Jimmy Jones Trio (1954) Remaster, 2014, Sony Music
Год: 2014
Год записи: 1954
Жанр: Mainstream Jazz, Piano Jazz
Издание: Sony Music - SICP 4269
Продолжительность: 00:22:34

Кодек: FLAC (image+ .cue)
Битрейт: Lossless
Источник (релизер): fiks22
Страна-производитель диска: Japan
Наличие сканов в содержимом раздачи: да

Треклист:

01.Easy to Love [03:15]
02.Little Girl Blue [03:48]
03.Lush Life [03:55]
04.Squeeze Me [03:54]
05.My Funny Valentine [03:59]
06.Good Morning Heartache [03:45]

Отчёт EAC:

Код:

Exact Audio Copy V1.1 from 23. June 2015

EAC extraction logfile from 25. July 2016, 18:48

Jimmy Jones / Jimmy Jones Trio

Used drive  : ASUS    DRW-24B1LT   Adapter: 5  ID: 1

Read mode               : Secure
Utilize accurate stream : Yes
Defeat audio cache      : Yes
Make use of C2 pointers : No

Read offset correction                      : 6
Overread into Lead-In and Lead-Out          : No
Fill up missing offset samples with silence : Yes
Delete leading and trailing silent blocks   : No
Null samples used in CRC calculations       : Yes
Used interface                              : Installed external ASPI interface

Used output format              : User Defined Encoder
Selected bitrate                : 768 kBit/s
Quality                         : High
Add ID3 tag                     : No
Command line compressor         : C:\Program Files\Exact Audio Copy\Flac\flac.exe
Additional command line options : -8 -V -T "ARTIST=%artist%" -T "TITLE=%title%" -T "ALBUM=%albumtitle%" -T "DATE=%year%" -T "TRACKNUMBER=%tracknr%" -T "TOTALTRACKS=%numtracks%" -T "GENRE=%genre%" -T "ALBUMARTIST=%albumartist%" -T "ALBUM ARTIST=%albumartist%" -T "COMMENT=EAC Secure Mode, Test & Copy, AccurateRip, FLAC -8" %source%

TOC of the extracted CD

     Track |   Start  |  Length  | Start sector | End sector
    ---------------------------------------------------------
        1  |  0:00.00 |  3:14.62 |         0    |    14611
        2  |  3:14.62 |  3:47.20 |     14612    |    31656
        3  |  7:02.07 |  3:54.45 |     31657    |    49251
        4  | 10:56.52 |  3:53.31 |     49252    |    66757
        5  | 14:50.08 |  3:58.05 |     66758    |    84612
        6  | 18:48.13 |  3:44.69 |     84613    |   101481

Range status and errors

Selected range

     Filename F:\audio\Jimmy Jones - Jimmy Jones Trio.wav

     Peak level 99.9 %
     Extraction speed 4.6 X
     Range quality 100.0 %
     Test CRC 752DE3E3
     Copy CRC 752DE3E3
     Copy OK

No errors occurred

AccurateRip summary

Track  1  accurately ripped (confidence 2)  [D784BDE4]  (AR v2)
Track  2  accurately ripped (confidence 2)  [2D002B62]  (AR v2)
Track  3  accurately ripped (confidence 2)  [84B81839]  (AR v2)
Track  4  accurately ripped (confidence 2)  [DC875568]  (AR v2)
Track  5  accurately ripped (confidence 2)  [C0B79A5C]  (AR v2)
Track  6  accurately ripped (confidence 2)  [F8F760DC]  (AR v2)

All tracks accurately ripped

End of status report

---- CUETools DB Plugin V2.1.6

[CTDB TOCID: kob7Gj2m0j4mYNokc5ZSk5XRXGA-] found
Submit result: kob7Gj2m0j4mYNokc5ZSk5XRXGA- has been confirmed
Track | CTDB Status
  1   | (4/4) Accurately ripped
  2   | (4/4) Accurately ripped
  3   | (4/4) Accurately ripped
  4   | (4/4) Accurately ripped
  5   | (4/4) Accurately ripped
  6   | (4/4) Accurately ripped

==== Log checksum DDB4EEF8157BD60316A2953BC978DAF4355D2FE6774A1E6B028A5728ABDF4E86 ====

Cue Sheet (.cue):

Код:

REM GENRE Jazz
REM DATE 1954
REM DISCID 47054906
REM COMMENT "ExactAudioCopy v1.1"
PERFORMER "Jimmy Jones"
TITLE "Jimmy Jones Trio"
FILE "Jimmy Jones - Jimmy Jones Trio.wav" WAVE
  TRACK 01 AUDIO
    TITLE "Easy to Love"
    PERFORMER "Jimmy Jones"
    INDEX 01 00:00:00
  TRACK 02 AUDIO
    TITLE "Little Girl Blue"
    PERFORMER "Jimmy Jones"
    INDEX 00 03:13:16
    INDEX 01 03:14:62
  TRACK 03 AUDIO
    TITLE "Lush Life"
    PERFORMER "Jimmy Jones"
    INDEX 00 06:59:73
    INDEX 01 07:02:07
  TRACK 04 AUDIO
    TITLE "Squeeze Me"
    PERFORMER "Jimmy Jones"
    INDEX 00 10:54:01
    INDEX 01 10:56:52
  TRACK 05 AUDIO
    TITLE "My Funny Valentine"
    PERFORMER "Jimmy Jones"
    INDEX 00 14:46:47
    INDEX 01 14:50:08
  TRACK 06 AUDIO
    TITLE "Good Morning Heartache"
    PERFORMER "Jimmy Jones"
    INDEX 00 18:44:20
    INDEX 01 18:48:13

Отчёт auCDtect Task manager:

Код:

-----------------------

DON'T MODIFY THIS FILE

-----------------------

PERFORMER: auCDtect Task Manager, ver. 1.6.0 RC1 build 1.6.0.1
Copyright (c) 2008-2010 y-soft. All rights reserved
http://y-soft.org

ANALYZER: auCDtect: CD records authenticity detector, version 0.8.2
Copyright (c) 2004 Oleg Berngardt. All rights reserved.
Copyright (c) 2004 Alexander Djourik. All rights reserved.

FILE: Jimmy Jones - Jimmy Jones Trio.flac
  Size: 108864889 Hash: 1EB0642582C14A533EFB958BA8505E0A Accuracy: -m0
  Conclusion: CDDA 100%
  Signature: C6E6B62F40B0A68C4A3652AB22C4F5029607FADF

Состав

Jimmy Jones - piano
Joe Benjamin - bass
Roy Haynes - drums

Детали торрента:
Название:Jimmy Jones - Jimmy Jones Trio (1954) Remaster, 2014, Sony Music[FLAC|Lossless|image + .cue] <Mainstream Jazz, Piano Jazz>
Дата добавления:02 Авг 2016 08:39:32
Размер:106 MB
Раздают:
Качают:0
Форум:Jazz (Lossless)

All rights reserved © 2015-2019