TORRENTS45.XYZ

Скачать Danzi - Der Berggeist, Oder Schicksal und Treue (2013) [FLAC|Lossless|tracks + .cue] <Classical>


Danzi - Der Berggeist (Colin Balzer, Daniel Ochoa, Sophie Harmsen, Sarah Wegener, Christian Immler, Tilman Lichdi, Patrick Pobeschin, Robert Buckland, Philip Niederberger, Vincert Frisch; Frieder Bernius) (2013)
Год: 2013
Жанр: Classical, live
Издание: Carus - 83.296
Продолжительность: 01:18:11

Кодек: FLAC
Битрейт: Lossless
Тип рипа: tracks + .cue

Треклист:
Франц Игнац Данци (1763—1826).
«Горный дух, или Судьба и верность», романтическая опера в двух действиях (перв. исп. 1813).
01—09. Увертюра и Действие I [41:33].
10—21. Действие II [35:57].
Исполнители:
Рюбецаль — Colin Balzer (тенор).
Якоб — Daniel Ochoa (баритон).
Марта — Sophie Harmsen (меццо-сопрано).
Анна — Sarah Wegener (сопрано).
Конрад — Christian Immler (баритон).
Генрих — Tilman Lichdi (тенор).
Пукс — Patrick Pobeschin (баритон).
Ночной сторож и Урль — Robert Buckland (тенор).
Морское чудовище — Philip Niederberger (баритон).
Ганс — Vincent Frisch (дискант).
Дух — Bernd Schmitt (не поет).

Kammerchor Stuttgart.
Hofkapelle Stuttgart.
Дирижер Frieder Bernius.

Отчёт EAC:

Код:


Exact Audio Copy V1.1 from 23. June 2015

EAC extraction logfile from 24. May 2016, 18:23

Frieder Bernius / danzi - Der Berggeist

Used drive  : HL-DT-STDVDRAM GUA0N   Adapter: 1  ID: 0

Read mode               : Secure
Utilize accurate stream : Yes
Defeat audio cache      : Yes
Make use of C2 pointers : No

Read offset correction                      : 6
Overread into Lead-In and Lead-Out          : No
Fill up missing offset samples with silence : Yes
Delete leading and trailing silent blocks   : No
Null samples used in CRC calculations       : Yes
Used interface                              : Native Win32 interface for Win NT & 2000
Gap handling                                : Appended to previous track

Used output format              : User Defined Encoder
Selected bitrate                : 896 kBit/s
Quality                         : High
Add ID3 tag                     : No
Command line compressor         : C:\Program Files (x86)\Exact Audio Copy\Flac\flac.exe
Additional command line options : -8 -V -T "ARTIST=%artist%" -T "TITLE=%title%" -T "ALBUM=%albumtitle%" -T "DATE=%year%" -T "TRACKNUMBER=%tracknr%" -T "GENRE=%genre%" -T "PERFORMER=%albuminterpret%" -T "COMPOSER=%composer%" %haslyrics%--tag-from-file=LYRICS="%lyricsfile%"%haslyrics% -T "ALBUMARTIST=%albumartist%" -T "DISCNUMBER=%cdnumber%" -T "TOTALDISCS=%totalcds%" -T "TOTALTRACKS=%numduckjammytracks%" -T "COMMENT=%comment%" %source% -o %dest%

TOC of the extracted CD

     Track |   Start  |  Length  | Start sector | End sector
    ---------------------------------------------------------
        1  |  0:00.00 |  5:05.47 |         0    |    22921
        2  |  5:05.47 | 10:16.74 |     22922    |    69195
        3  | 15:22.46 |  2:49.12 |     69196    |    81882
        4  | 18:11.58 |  2:05.45 |     81883    |    91302
        5  | 20:17.28 |  2:30.10 |     91303    |   102562
        6  | 22:47.38 |  3:15.04 |    102563    |   117191
        7  | 26:02.42 |  7:42.69 |    117192    |   151910
        8  | 33:45.36 |  2:54.74 |    151911    |   165034
        9  | 36:40.35 |  5:00.09 |    165035    |   187543
       10  | 41:40.44 |  2:58.48 |    187544    |   200941
       11  | 44:39.17 |  3:09.67 |    200942    |   215183
       12  | 47:49.09 |  1:54.39 |    215184    |   223772
       13  | 49:43.48 |  1:48.18 |    223773    |   231890
       14  | 51:31.66 |  2:16.04 |    231891    |   242094
       15  | 53:47.70 |  0:41.03 |    242095    |   245172
       16  | 54:28.73 |  1:41.44 |    245173    |   252791
       17  | 56:10.42 |  3:34.32 |    252792    |   268873
       18  | 59:44.74 |  5:01.38 |    268874    |   291486
       19  | 64:46.37 |  2:38.41 |    291487    |   303377
       20  | 67:25.03 |  1:46.60 |    303378    |   311387
       21  | 69:11.63 |  8:57.04 |    311388    |   351666

Track  1

     Filename C:\E\01 Ouverture.wav

     Pre-gap length  0:00:02.00

     Peak level 89.9 %
     Extraction speed 1.3 X
     Track quality 100.0 %
     Test CRC 1B2BE2AA
     Copy CRC 1B2BE2AA
     Accurately ripped (confidence 4)  [C313CB6E]  (AR v2)
     Copy OK

Track  2

     Filename C:\E\02 Szene- Rübezahl, Der Geist, Chor der Gnomen- 'Zu hart ist diese Rache'.wav

     Peak level 90.7 %
     Extraction speed 1.6 X
     Track quality 100.0 %
     Test CRC 2E42F478
     Copy CRC 2E42F478
     Accurately ripped (confidence 4)  [91C98761]  (AR v2)
     Copy OK

Track  3

     Filename C:\E\03 Chor der Jünglinge und Mädchen- 'Es lebt sich herrlich auf der Welt'.wav

     Peak level 49.5 %
     Extraction speed 1.6 X
     Track quality 100.0 %
     Test CRC 71212482
     Copy CRC 71212482
     Accurately ripped (confidence 4)  [ADAC7CAA]  (AR v2)
     Copy OK

Track  4

     Filename C:\E\04 Lied- Anne, Chor- 'Dort oben im Gebirge'.wav

     Peak level 52.7 %
     Extraction speed 1.5 X
     Track quality 100.0 %
     Test CRC 44D25DBA
     Copy CRC 44D25DBA
     Accurately ripped (confidence 4)  [47EAB11C]  (AR v2)
     Copy OK

Track  5

     Filename C:\E\05 Septett-Jakob, Marthe, Anne, Heinrich, Rübezahl, Konrad, Hans- 'Wohl wankt auf Erden weit und breit'.wav

     Peak level 51.7 %
     Extraction speed 1.6 X
     Track quality 100.0 %
     Test CRC 982B54F4
     Copy CRC 982B54F4
     Accurately ripped (confidence 4)  [3A6C6448]  (AR v2)
     Copy OK

Track  6

     Filename C:\E\06 Arie Jakob- 'Ja, schon im Geist seh ich es raten'.wav

     Peak level 77.4 %
     Extraction speed 1.8 X
     Track quality 100.0 %
     Test CRC 92F02837
     Copy CRC 92F02837
     Accurately ripped (confidence 4)  [10BA0F5D]  (AR v2)
     Copy OK

Track  7

     Filename C:\E\07 Rezitativ und Arie Anne-'So war's gemeint'.wav

     Peak level 65.8 %
     Extraction speed 2.1 X
     Track quality 100.0 %
     Test CRC 49CA550D
     Copy CRC 49CA550D
     Accurately ripped (confidence 4)  [688B1A79]  (AR v2)
     Copy OK

Track  8

     Filename C:\E\08 Duett Anne, Heinrich- 'Woin ewigjungen Lauben'.wav

     Peak level 44.5 %
     Extraction speed 1.9 X
     Track quality 100.0 %
     Test CRC CD4CCF5E
     Copy CRC CD4CCF5E
     Accurately ripped (confidence 4)  [FE39F516]  (AR v2)
     Copy OK

Track  9

     Filename C:\E\09 Finale Die Nixen, Pux, Meerungeheuer- 'Schlaf nicht so lang'.wav

     Peak level 72.7 %
     Extraction speed 1.9 X
     Track quality 99.9 %
     Test CRC 485DA9EC
     Copy CRC 485DA9EC
     Accurately ripped (confidence 4)  [87D36E47]  (AR v2)
     Copy OK

Track 10

     Filename C:\E\10 Lied der Gnomen- 'In den Höhlen heißt der Wilde'.wav

     Pre-gap length  0:00:09.22

     Peak level 46.7 %
     Extraction speed 1.8 X
     Track quality 99.9 %
     Test CRC DA57BDC5
     Copy CRC DA57BDC5
     Accurately ripped (confidence 4)  [D0CEF5BC]  (AR v2)
     Copy OK

Track 11

     Filename C:\E\11 Terzett Jakob, Anne, Heinrich- 'Sollt ich mich vor dem Knaben scheuen'.wav

     Peak level 71.3 %
     Extraction speed 1.8 X
     Track quality 99.9 %
     Test CRC 7E05A224
     Copy CRC 7E05A224
     Accurately ripped (confidence 4)  [7C50704C]  (AR v2)
     Copy OK

Track 12

     Filename C:\E\12 Terzett Jakob, Konrad, Marthe- 'Es kann nicht sein'.wav

     Peak level 85.6 %
     Extraction speed 1.6 X
     Track quality 99.9 %
     Test CRC 53902F9B
     Copy CRC 53902F9B
     Accurately ripped (confidence 4)  [F5FCC3C9]  (AR v2)
     Copy OK

Track 13

     Filename C:\E\13 Arie Pux-'O Meister'.wav

     Peak level 46.0 %
     Extraction speed 1.5 X
     Track quality 99.9 %
     Test CRC FD83FFD8
     Copy CRC FD83FFD8
     Accurately ripped (confidence 4)  [880AB06E]  (AR v2)
     Copy OK

Track 14

     Filename C:\E\14 Arie Heinrich- 'Ich bleibe hier'.wav

     Peak level 53.9 %
     Extraction speed 2.0 X
     Track quality 100.0 %
     Test CRC 65DC472E
     Copy CRC 65DC472E
     Accurately ripped (confidence 4)  [7591DB23]  (AR v2)
     Copy OK

Track 15

     Filename C:\E\15 Chor der Gnomen- 'Durch die Felsenpforte'.wav

     Peak level 18.4 %
     Extraction speed 1.3 X
     Track quality 100.0 %
     Test CRC E5AA1040
     Copy CRC E5AA1040
     Accurately ripped (confidence 4)  [374BBBF0]  (AR v2)
     Copy OK

Track 16

     Filename C:\E\16 Szene Anne- 'Welche unsichtbare Macht'.wav

     Peak level 41.8 %
     Extraction speed 1.5 X
     Track quality 99.8 %
     Test CRC CCC4C2CD
     Copy CRC CCC4C2CD
     Accurately ripped (confidence 4)  [2AACA829]  (AR v2)
     Copy OK

Track 17

     Filename C:\E\17 Chor der Gnomen, Anne, Eine Stimme, Heinrichs Stimme- 'Zage nicht, du Auserwählte'.wav

     Peak level 90.8 %
     Extraction speed 2.1 X
     Track quality 99.9 %
     Test CRC 8452C240
     Copy CRC 8452C240
     Accurately ripped (confidence 4)  [7603AD5E]  (AR v2)
     Copy OK

Track 18

     Filename C:\E\18 Rezitativ und Arie Rübezahl, Chor-'Um Mitternacht treff ihn der Rache Strahl'.wav

     Peak level 90.9 %
     Extraction speed 2.6 X
     Track quality 100.0 %
     Test CRC 9C451B03
     Copy CRC 9C451B03
     Accurately ripped (confidence 4)  [D4C7BE61]  (AR v2)
     Copy OK

Track 19

     Filename C:\E\19 Orchesterstück- 'Das Meerschloß'.wav

     Peak level 50.9 %
     Extraction speed 2.4 X
     Track quality 100.0 %
     Test CRC 0D3A0C99
     Copy CRC 0D3A0C99
     Accurately ripped (confidence 4)  [09EBDE9E]  (AR v2)
     Copy OK

Track 20

     Filename C:\E\20 Nachtwächter- 'In der stillen Mitternacht'.wav

     Peak level 31.7 %
     Extraction speed 2.1 X
     Track quality 100.0 %
     Test CRC FC133643
     Copy CRC FC133643
     Accurately ripped (confidence 4)  [0A976606]  (AR v2)
     Copy OK

Track 21

     Filename C:\E\21 Finale- 'O schreckliches Erwachen'.wav

     Peak level 91.2 %
     Extraction speed 2.9 X
     Track quality 100.0 %
     Test CRC 90065681
     Copy CRC 90065681
     Accurately ripped (confidence 4)  [5DA86264]  (AR v2)
     Copy OK

All tracks accurately ripped

No errors occurred

End of status report

---- CUETools DB Plugin V2.1.6

[CTDB TOCID: gOh9GvwO1OiUivhhAfv4FLoyrBM-] found
Submit result: gOh9GvwO1OiUivhhAfv4FLoyrBM- has been confirmed
Track | CTDB Status
  1   | (3/3) Accurately ripped
  2   | (3/3) Accurately ripped
  3   | (3/3) Accurately ripped
  4   | (3/3) Accurately ripped
  5   | (3/3) Accurately ripped
  6   | (3/3) Accurately ripped
  7   | (3/3) Accurately ripped
  8   | (3/3) Accurately ripped
  9   | (3/3) Accurately ripped
 10   | (3/3) Accurately ripped
 11   | (3/3) Accurately ripped
 12   | (3/3) Accurately ripped
 13   | (3/3) Accurately ripped
 14   | (3/3) Accurately ripped
 15   | (3/3) Accurately ripped
 16   | (3/3) Accurately ripped
 17   | (3/3) Accurately ripped
 18   | (3/3) Accurately ripped
 19   | (3/3) Accurately ripped
 20   | (3/3) Accurately ripped
 21   | (3/3) Accurately ripped

==== Log checksum 42663B99B0E00DA2B45EAF0EE1BBAC2CEBFD6536110B592D86BB668849F43F55 ====

Cue Sheet (.cue):

Код:

REM GENRE Opera
REM DATE 2013
REM DISCID 35125015
REM COMMENT "ExactAudioCopy v1.1"
CATALOG 4009350832961
PERFORMER "Danzi – Der Berggeist – Frieder Bernius"
TITLE "Danzi – Der Berggeist – Frieder Bernius"
FILE "01 - Ouverture.flac" WAVE
  TRACK 01 AUDIO
    TITLE "Ouverture"
    PERFORMER "Frieder Bernius"
    ISRC DEB111301201
    FLAGS DCP
    INDEX 01 00:00:00
FILE "02 - Szene (Ruebezahl, Der Geist, Chor der Gnomen). 'Zu hart ist diese Rache'.flac" WAVE
  TRACK 02 AUDIO
    TITLE "Szene (Ruebezahl, Der Geist, Chor der Gnomen). 'Zu hart ist diese Rache'"
    PERFORMER "Frieder Bernius"
    ISRC DEB111301202
    FLAGS DCP
    INDEX 01 00:00:00
  TRACK 03 AUDIO
    TITLE "Chor der Juenglinge und Maedchen. 'Es lebt sich herrlich auf der Welt'"
    PERFORMER "Frieder Bernius"
    ISRC DEB111301203
    FLAGS DCP
    INDEX 00 10:13:74
FILE "03 - Chor der Juenglinge und Maedchen. 'Es lebt sich herrlich auf der Welt'.flac" WAVE
    INDEX 01 00:00:00
  TRACK 04 AUDIO
    TITLE "Lied (Anne, Chor). 'Dort oben im Gebirge'"
    PERFORMER "Frieder Bernius"
    ISRC DEB111301204
    FLAGS DCP
    INDEX 00 02:45:31
FILE "04 - Lied (Anne, Chor). 'Dort oben im Gebirge'.flac" WAVE
    INDEX 01 00:00:00
  TRACK 05 AUDIO
    TITLE "Septett (Jakob, Marthe, Anne, Heinrich, Ruebezahl, Konrad, Hans). 'Wohl wankt auf Erden weit und breit'"
    PERFORMER "Frieder Bernius"
    ISRC DEB111301205
    FLAGS DCP
    INDEX 00 02:02:66
FILE "05 - Septett (Jakob, Marthe, Anne, Heinrich, Ruebezahl, Konrad, Hans). 'Wohl wankt auf Erden weit und breit'.flac" WAVE
    INDEX 01 00:00:00
  TRACK 06 AUDIO
    TITLE "Arie (Jakob). 'Ja, schon im Geist seh ich es raten'"
    PERFORMER "Frieder Bernius"
    ISRC DEB111301206
    FLAGS DCP
    INDEX 00 02:26:31
FILE "06 - Arie (Jakob). 'Ja, schon im Geist seh ich es raten'.flac" WAVE
    INDEX 01 00:00:00
  TRACK 07 AUDIO
    TITLE "Rezitativ und Arie (Anne). 'So war's gemeint'"
    PERFORMER "Frieder Bernius"
    ISRC DEB111301207
    FLAGS DCP
    INDEX 00 03:12:35
FILE "07 - Rezitativ und Arie (Anne). 'So war's gemeint'.flac" WAVE
    INDEX 01 00:00:00
  TRACK 08 AUDIO
    TITLE "Duett (Anne, Heinrich). 'Wo in ewigjungen Lauben'"
    PERFORMER "Frieder Bernius"
    ISRC DEB111301208
    FLAGS DCP
    INDEX 00 07:39:59
FILE "08 - Duett (Anne, Heinrich). 'Wo in ewigjungen Lauben'.flac" WAVE
    INDEX 01 00:00:00
FILE "09 - Finale (Die Nixen, Pux, Meerungeheuer). 'Schlaf nicht so lang'.flac" WAVE
  TRACK 09 AUDIO
    TITLE "Finale (Die Nixen, Pux, Meerungeheuer). 'Schlaf nicht so lang'"
    PERFORMER "Frieder Bernius"
    ISRC DEB111301209
    FLAGS DCP
    INDEX 01 00:00:00
  TRACK 10 AUDIO
    TITLE "Lied der Gnomen (Url, Chor). 'In den Hoehlen haust der Wilde'"
    PERFORMER "Frieder Bernius"
    ISRC DEB111301210
    FLAGS DCP
    INDEX 00 04:52:64
FILE "10 - Lied der Gnomen (Url, Chor). 'In den Hoehlen haust der Wilde'.flac" WAVE
    INDEX 01 00:00:00
  TRACK 11 AUDIO
    TITLE "Terzett (Jakob, Anne, Heinrich). 'Sollt ich mich vor dem Knaben scheuen'"
    PERFORMER "Frieder Bernius"
    ISRC DEB111301210
    FLAGS DCP
    INDEX 00 02:54:21
FILE "11 - Terzett (Jakob, Anne, Heinrich). 'Sollt ich mich vor dem Knaben scheuen'.flac" WAVE
    INDEX 01 00:00:00
  TRACK 12 AUDIO
    TITLE "Terzett (Jakob, Konrad, Marthe). 'Es kann nicht sein'"
    PERFORMER "Frieder Bernius"
    ISRC DEB111301212
    FLAGS DCP
    INDEX 00 03:05:74
FILE "12 - Terzett (Jakob, Konrad, Marthe). 'Es kann nicht sein'.flac" WAVE
    INDEX 01 00:00:00
  TRACK 13 AUDIO
    TITLE "Arie (Pux). 'O Meister'"
    PERFORMER "Frieder Bernius"
    ISRC DEB111301213
    FLAGS DCP
    INDEX 00 01:51:07
FILE "13 - Arie (Pux). 'O Meister'.flac" WAVE
    INDEX 01 00:00:00
  TRACK 14 AUDIO
    TITLE "Arie (Heinrich). 'Ich bleibe hier'"
    PERFORMER "Frieder Bernius"
    ISRC DEB111301214
    FLAGS DCP
    INDEX 00 01:44:73
FILE "14 - Arie (Heinrich). 'Ich bleibe hier'.flac" WAVE
    INDEX 01 00:00:00
FILE "15 - Chor der Gnomen. 'Durch die Felsenpforte'.flac" WAVE
  TRACK 15 AUDIO
    TITLE "Chor der Gnomen. 'Durch die Felsenpforte'"
    PERFORMER "Frieder Bernius"
    ISRC DEB111301215
    FLAGS DCP
    INDEX 01 00:00:00
FILE "16 - Szene (Anne). 'Welche unsichtbare Macht'.flac" WAVE
  TRACK 16 AUDIO
    TITLE "Szene (Anne). 'Welche unsichtbare Macht'"
    PERFORMER "Frieder Bernius"
    ISRC DEB111301215
    FLAGS DCP
    INDEX 01 00:00:00
FILE "17 - Chor (Chor der Gnomen, Anne, Eine Stimme, Heinrichs Stimme). 'Zage nicht, du Auserwaehlte'.flac" WAVE
  TRACK 17 AUDIO
    TITLE "Chor (Chor der Gnomen, Anne, Eine Stimme, Heinrichs Stimme). 'Zage nicht, du Auserwaehlte'"
    PERFORMER "Frieder Bernius"
    ISRC DEB111301217
    FLAGS DCP
    INDEX 01 00:00:00
FILE "18 - Rezitativ und Arie (Ruebezahl, Chor). 'Um Mitternacht treff ihn der Rache Strahl'.flac" WAVE
  TRACK 18 AUDIO
    TITLE "Rezitativ und Arie (Ruebezahl, Chor). 'Um Mitternacht treff ihn der Rache Strahl'"
    PERFORMER "Frieder Bernius"
    ISRC DEB111301218
    FLAGS DCP
    INDEX 01 00:00:00
  TRACK 19 AUDIO
    TITLE "Orchesterstueck. Das Meerschloss"
    PERFORMER "Frieder Bernius"
    ISRC DEB111301219
    FLAGS DCP
    INDEX 00 04:59:00
FILE "19 - Orchesterstueck. Das Meerschloss.flac" WAVE
    INDEX 01 00:00:00
FILE "20 - Nachtwaechter. 'In der stillen Mitternacht'.flac" WAVE
  TRACK 20 AUDIO
    TITLE "Nachtwaechter. 'In der stillen Mitternacht'"
    PERFORMER "Frieder Bernius"
    ISRC DEB111301220
    FLAGS DCP
    INDEX 01 00:00:00
FILE "21 - Finale. 'O schreckliches Erwachen'.flac" WAVE
  TRACK 21 AUDIO
    TITLE "Finale. 'O schreckliches Erwachen'"
    PERFORMER "Frieder Bernius"
    ISRC DEB111301221
    FLAGS DCP
    INDEX 01 00:00:00
    INDEX 02 08:27:42

Отчёт auCDtect Task manager:

Код:

-----------------------

DON'T MODIFY THIS FILE

-----------------------

PERFORMER: auCDtect Task Manager, ver. 1.6.0 RC1 build 1.6.0.1
Copyright (c) 2008-2010 y-soft. All rights reserved
http://y-soft.org

ANALYZER: auCDtect: CD records authenticity detector, version 0.8.2
Copyright (c) 2004 Oleg Berngardt. All rights reserved.
Copyright (c) 2004 Alexander Djourik. All rights reserved.

FILE: 21 - Finale. 'O schreckliches Erwachen'.flac
  Size: 42687843 Hash: 09D5B1FDC8058B90D4DEA783875A5838 Accuracy: -m0
  Conclusion: CDDA 100%
  Signature: 6087D24CC388D47BB3165121E830BCFC1EAA8C4F
FILE: 20 - Nachtwaechter. 'In der stillen Mitternacht'.flac
  Size: 6850186 Hash: 4516221F00E2916781FD2F980AFED921 Accuracy: -m0
  Conclusion: CDDA 100%
  Signature: 4ACB035D7C2C21438D9A84284BA5249EF085ECB3
FILE: 19 - Orchesterstueck. Das Meerschloss.flac
  Size: 9312685 Hash: 9BBBAE6733EC1C40DB8D195A72302D9F Accuracy: -m0
  Conclusion: CDDA 100%
  Signature: 0CE05E97F5F182229A61BC1DDBEA1AF3763649A3
FILE: 18 - Rezitativ und Arie (Ruebezahl, Chor). 'Um Mitternacht treff ihn der Rache Strahl'.flac
  Size: 22781139 Hash: B470B326D77C421F94CCDE9FD9E9C096 Accuracy: -m0
  Conclusion: CDDA 100%
  Signature: 2364432A581ED2A08FC04C11AF096203ACD2771D
FILE: 17 - Chor (Chor der Gnomen, Anne, Eine Stimme, Heinrichs Stimme). 'Zage nicht, du Auserwaehlte'.flac
  Size: 15530338 Hash: 25F5B3BECD68BA5949F2C0D3BD70F720 Accuracy: -m0
  Conclusion: CDDA 100%
  Signature: F54C383BC827C611D068A9883296FB067597F78E
FILE: 16 - Szene (Anne). 'Welche unsichtbare Macht'.flac
  Size: 6813889 Hash: 3A38DD2E80BD9BCD2703C2E55929990E Accuracy: -m0
  Conclusion: CDDA 100%
  Signature: 09FB843F8A801A85D3C5C0AB72F377C0C580F36B
FILE: 15 - Chor der Gnomen. 'Durch die Felsenpforte'.flac
  Size: 2180732 Hash: CE8135FD4711BF62A6E0A4B7FF64EBED Accuracy: -m0
  Conclusion: CDDA 100%
  Signature: B3826679582BB8182EEBD368DA71B902AC0CDBFD
FILE: 14 - Arie (Heinrich). 'Ich bleibe hier'.flac
  Size: 9936758 Hash: BFF9A00015C6CCEC2C63D17FB9A0E97E Accuracy: -m0
  Conclusion: CDDA 100%
  Signature: 9938A220823FFBFFC9B3AB7E3E81F3709370A665
FILE: 13 - Arie (Pux). 'O Meister'.flac
  Size: 7988706 Hash: C92D8EDAF5C83AE8A5ED1FF9AF9177B2 Accuracy: -m0
  Conclusion: CDDA 100%
  Signature: 553A1658DCF7CBB387FF22114AD7F3CC2DEBD131
FILE: 12 - Terzett (Jakob, Konrad, Marthe). 'Es kann nicht sein'.flac
  Size: 9535353 Hash: C4C7A93FA3716C62086611E7D02003A9 Accuracy: -m0
  Conclusion: CDDA 100%
  Signature: B9EC6755E2197FFDB59CD3FF8539448264D2BF7C
FILE: 11 - Terzett (Jakob, Anne, Heinrich). 'Sollt ich mich vor dem Knaben scheuen'.flac
  Size: 14711979 Hash: FC44113A2AC5814D9EE0C9AF7884C754 Accuracy: -m0
  Conclusion: CDDA 100%
  Signature: E91642EB960CD904C0E19FA0AE1561AA672448DD
FILE: 10 - Lied der Gnomen (Url, Chor). 'In den Hoehlen haust der Wilde'.flac
  Size: 13482245 Hash: B582A85258821CDC54F98FD93358BDEF Accuracy: -m0
  Conclusion: CDDA 100%
  Signature: 918EBB03B55948C0E52EB380E1F80C922BADDEA8
FILE: 09 - Finale (Die Nixen, Pux, Meerungeheuer). 'Schlaf nicht so lang'.flac
  Size: 22082668 Hash: E7468FEA375ED7C97F01243C78922C6B Accuracy: -m0
  Conclusion: CDDA 100%
  Signature: E5113C264DDE32B8C08A370ECD3E8EF1F2EEDEC8
FILE: 08 - Duett (Anne, Heinrich). 'Wo in ewigjungen Lauben'.flac
  Size: 11622108 Hash: E7795AA65F5B8707CB00F55723F0C8CE Accuracy: -m0
  Conclusion: CDDA 100%
  Signature: C09BD676A3B46239C1563BAC8717348E6B869B09
FILE: 07 - Rezitativ und Arie (Anne). 'So war's gemeint'.flac
  Size: 31975982 Hash: D8BCADB6837611B29E191B08CD8BD279 Accuracy: -m0
  Conclusion: CDDA 100%
  Signature: 95F5C30F8F30665AE8B27D88D671693B89852DE3
FILE: 06 - Arie (Jakob). 'Ja, schon im Geist seh ich es raten'.flac
  Size: 15211197 Hash: C075882D61B19C72F5BE24B06A566086 Accuracy: -m0
  Conclusion: CDDA 100%
  Signature: 285FE6A24D88B3AAF35E2EAFF1896970DD273115
FILE: 05 - Septett (Jakob, Marthe, Anne, Heinrich, Ruebezahl, Konrad, Hans). 'Wohl wankt auf Erden weit und breit'.flac
  Size: 10931115 Hash: 2FC36C48EDA8BE08F2FB263E22A9E6D9 Accuracy: -m0
  Conclusion: CDDA 100%
  Signature: 4440ADF2098DB5A6C2F9A050C66A1B46C3B42504
FILE: 04 - Lied (Anne, Chor). 'Dort oben im Gebirge'.flac
  Size: 9154593 Hash: 5CB5BF5112844DCB426D306255FB5426 Accuracy: -m0
  Conclusion: CDDA 100%
  Signature: 5F830E6DBA012AA5C21632CD8E9A7A894E361372
FILE: 03 - Chor der Juenglinge und Maedchen. 'Es lebt sich herrlich auf der Welt'.flac
  Size: 12730130 Hash: 19F821B9D665472B86174E671A95D999 Accuracy: -m0
  Conclusion: CDDA 100%
  Signature: A16932CFB76B2B3FC1DE733DA298A9ED5F20A897
FILE: 02 - Szene (Ruebezahl, Der Geist, Chor der Gnomen). 'Zu hart ist diese Rache'.flac
  Size: 44533422 Hash: BA28DFA9D6211203AB61A191F9ADF2AA Accuracy: -m0
  Conclusion: CDDA 100%
  Signature: E759C36752B50DB0A8D21C2F720DBAF24554D546
FILE: 01 - Ouverture.flac
  Size: 23060852 Hash: 20DE7FB34CFDD66650517215CB44CABE Accuracy: -m0
  Conclusion: CDDA 100%
  Signature: 94AFF3A1570C14003FAB946EC111D5CFAFD1450A

Спектрограмма:






Поглощение/вытеснение
Только с согласия релизера

Pashketan
Детали торрента:
Название:Danzi - Der Berggeist, Oder Schicksal und Treue (2013) [FLAC|Lossless|tracks + .cue] <Classical>
Дата добавления:28 Июл 2016 10:07:35
Размер:384 MB
Раздают:1
Качают:0
Форум:Концерты (Lossless)

All rights reserved © 2015-2018