TORRENTS45.XYZ

Скачать Долина предков (1989) TVRip


Долина предков (1989) TVRip
Производство: СССР, Киргизфильм
Жанр: Драма

Режиссёр: Кадыржан Кыдыралиев
Актёры: Даркуль Куюкова, Расул Укачин, Мухтар Бахтыгереев, Бакирдин Алиев, Жамал Сейдакматова, Дана Кайырбекова, Орозбек Кутманалиев, А. Кочкорбаева, А. Рысмендеева

Описание:
Почти обезлюдел большой аил высоко в горах Киргизстана. Болит за него душа не только у трёх стариков, оберегающих пустые дома, но и у молодого парня, демобилизованного солдата. И почему бы не вернуться людям в такие замечательные места, где жизнь чище и здоровее, чем в городах ?


Возраст: 16+ (зрителям, достигшим 16 лет)

Релиз от: kolman67

Продолжительность: 01:05:45
Качество видео: TVRip

Видео: Xvid, 720x544, ~1415 Kbps
Аудио: AAC, 2 ch, 128 Kbps, CBR

Mediainfo:

Код:

Общее
Полное имя : Долина предков (1989).mp4
Формат : MPEG-4
Профиль формата : Base Media
Идентификатор кодека : isom (isom/iso2/mp41)
Размер файла : 729 Мбайт
Продолжительность : 1 ч. 5 м.
Режим общего битрейта : Переменный
Общий поток : 1550 Кбит/сек
Программа кодирования : XviD4PSP 7.0.280 DAILY
encoding_info : AVI > MP4 Произвольный MPEG4 > XVID CBR 5700kbps SHQ MP3 > AAC CBR 128kbps LC
Xtra : WM/MediaClassPrimaryID

Видео
Идентификатор : 1
Формат : MPEG-4 Visual
Профиль формата : Simple@L3
Параметр BVOP формата : Нет
Параметр QPel формата : Нет
Параметр GMC формата : Без точки перехода
Параметр матрицы формата : Default (H.263)
Идентификатор кодека : 20
Продолжительность : 1 ч. 5 м.
Вид битрейта : Переменный
Битрейт : 1415 Кбит/сек
Максимальный битрейт : 5700 Кбит/сек
Ширина : 720 пикселей
Высота : 544 пикселя
Соотношение сторон : 1,433
Режим частоты кадров : Постоянный
Частота кадров : 30,000 кадров/сек
Цветовое пространство : YUV
Субдискретизация насыщенности : 4:2:0
Битовая глубина : 8 бит
Тип развёртки : Прогрессивная
Метод сжатия : С потерями
Бит/(Пиксели*Кадры) : 0.120
Размер потока : 666 Мбайт (91%)
Библиотека кодирования : XviD 67

Аудио
Идентификатор : 2
Формат : AAC
Формат/Информация : Advanced Audio Codec
Профиль формата : LC
Идентификатор кодека : 40
Продолжительность : 1 ч. 5 м.
Вид битрейта : Постоянный
Битрейт : 128 Кбит/сек
Каналы : 2 канала
Расположение каналов : Front: L R
Частота : 48,0 КГц
Частота кадров : 46,875 кадров/сек (1024 spf)
Метод сжатия : С потерями
Размер потока : 60,2 Мбайт (8%)
Default : Да
Alternate group : 1
Скриншоты:

Дополнительные скриншоты:



Детали торрента:
Название:Долина предков (1989) TVRip
Дата добавления:27 Июл 2016 16:39:45
Размер:729 MB
Раздают:
Качают:0
Форум:Старые Отечественные Фильмы (HD*Rip/LQ, DVDRip, SATRip, VHSRip)

All rights reserved © 2015-2018