TORRENTS45.XYZ

Скачать Шоколадные Зайцы - Запад - Восток (1999) [TAK|Lossless|image + .cue] <Chanson>


Шоколадные Зайцы - Запад - Восток (1999)
Год: 1999
Жанр: Chanson
Продолжительность: 00:47:03

Кодек: TAK
Битрейт: Lossless
Тип рипа: image + .cue

Треклист:
01 - Ночная птица
02 - До дна
03 - Запад - восток
04 - Девочка
05 - Дорожная
06 - Любовь больше, чем жизнь
07 - Музыка лета
08 - На самолёте
09 - Нега
10 - Неоновый блуд
11 - Новый год
12 - До новой весны

Отчёт EAC:

Код:

Exact Audio Copy V1.0 beta 6 from 9. April 2015

Отчёт EAC об извлечении, выполненном 24. июня 2015, 11:20

Шоколадные Зайцы / Запад - Восток

Дисковод: SlimtypeDVD A  DS8A5SH   Adapter: 1  ID: 0

Режим чтения                 : Достоверность
Использование точного потока : Да
Отключение кэша аудио        : Да
Использование указателей C2  : Нет

Коррекция смещения при чтении                     : 6
Способность читать области Lead-in и Lead-out     : Нет
Заполнение пропущенных сэмплов тишиной            : Да
Удаление блоков с тишиной в начале и конце        : Нет
При вычислениях CRC использовались нулевые сэмплы : Да
Интерфейс                                         : Встроенный Win32-интерфейс для Win NT/2000

Выходной формат          : Пользовательский кодировщик
Выбранный битрейт        : 768 kBit/s
Качество                 : Высокий
Добавление ID3-тега      : Нет
Утилита сжатия           : C:\Takc-2013.exe
Дополнительные параметры : -e -tn2 -p4e -md5 -v %source% %dest%

TOC извлечённого CD

     Трек |   Старт  | Длительность | Начальный сектор | Конечный сектор
    ---------------------------------------------------------------------
       1  |  0:00.00 |    4:05.00   |           0      |      18374
       2  |  4:05.00 |    4:19.72   |       18375      |      37871
       3  |  8:24.72 |    3:31.73   |       37872      |      53769
       4  | 11:56.70 |    3:30.23   |       53770      |      69542
       5  | 15:27.18 |    4:26.27   |       69543      |      89519
       6  | 19:53.45 |    3:38.01   |       89520      |     105870
       7  | 23:31.46 |    3:10.38   |      105871      |     120158
       8  | 26:42.09 |    4:18.13   |      120159      |     139521
       9  | 31:00.22 |    4:25.57   |      139522      |     159453
      10  | 35:26.04 |    3:41.31   |      159454      |     176059
      11  | 39:07.35 |    4:46.16   |      176060      |     197525
      12  | 43:53.51 |    3:10.00   |      197526      |     211775

Характеристики диапазона извлечения и сообщения об ошибках

Выбранный диапазон

     Имя файла D:\!!!CвежРип\!0__ALAC\__TAK\Запад - Восток.wav

     Пиковый уровень 100.0 %
     Скорость извлечения 1.2 X
     Качество диапазона 99.9 %
     CRC теста 6C742467
     CRC копии 6C742467
     Копирование... OK

Ошибок не произошло

AccurateRip: сводка

Трек  1  отсутствует в базе данных
Трек  2  отсутствует в базе данных
Трек  3  отсутствует в базе данных
Трек  4  отсутствует в базе данных
Трек  5  отсутствует в базе данных
Трек  6  отсутствует в базе данных
Трек  7  отсутствует в базе данных
Трек  8  отсутствует в базе данных
Трек  9  отсутствует в базе данных
Трек 10  отсутствует в базе данных
Трек 11  отсутствует в базе данных
Трек 12  отсутствует в базе данных

Ни одного трека нет в базе AccurateRip

Конец отчёта

---- CUETools DB Plugin V2.1.6

[CTDB TOCID: 41Tdmh2W0ITBxveKS_KlKGdfcOA-] disk not present in database
Submit result: 41Tdmh2W0ITBxveKS_KlKGdfcOA- has been uploaded

==== Контрольная сумма отчёта 0213F79EA17595CD4D5E7120FA093064922BB3235719327C48AF862427A980C1 ====

Cue Sheet (.cue):

Код:

REM GENRE Pop, Dance-Pop
REM DATE 1999
REM DISCID A20B070C
PERFORMER "Шоколадные Зайцы"
TITLE "Запад - Восток"
FILE "Запад - Восток.tak" WAVE
  TRACK 01 AUDIO
    TITLE "Ночная птица"
    INDEX 01 00:00:00
  TRACK 02 AUDIO
    TITLE "До дна"
    INDEX 01 04:05:00
  TRACK 03 AUDIO
    TITLE "Запад - восток"
    INDEX 01 08:24:72
  TRACK 04 AUDIO
    TITLE "Девочка"
    INDEX 01 11:56:70
  TRACK 05 AUDIO
    TITLE "Дорожная"
    INDEX 01 15:27:18
  TRACK 06 AUDIO
    TITLE "Любовь больше, чем жизнь"
    INDEX 01 19:53:45
  TRACK 07 AUDIO
    TITLE "Музыка лета"
    INDEX 01 23:31:46
  TRACK 08 AUDIO
    TITLE "На самолёте"
    INDEX 01 26:42:09
  TRACK 09 AUDIO
    TITLE "Нега"
    INDEX 01 31:00:22
  TRACK 10 AUDIO
    TITLE "Неоновый блуд"
    INDEX 01 35:26:04
  TRACK 11 AUDIO
    TITLE "Новый год"
    INDEX 01 39:07:35
  TRACK 12 AUDIO
    TITLE "До новой весны"
    INDEX 01 43:53:51

Отчёт auCDtect Task manager:

Код:

-----------------------

DON'T MODIFY THIS FILE

-----------------------

PERFORMER: auCDtect Task Manager, ver. 1.6.0 RC1 build 1.6.0.1
Copyright (c) 2008-2010 y-soft. All rights reserved
http://y-soft.org

ANALYZER: auCDtect: CD records authenticity detector, version 0.8.2
Copyright (c) 2004 Oleg Berngardt. All rights reserved.
Copyright (c) 2004 Alexander Djourik. All rights reserved.

FILE: Запад - Восток.tak
  Size: 312127896 Hash: 5B671622263CDD8FF856BD67C03D87B6 Accuracy: -m0
  Conclusion: CDDA 100%
  Signature: 7BD7F68F519B76A1C2B4983B5F8C84829403E9F0

Спектрограмма:



Детали торрента:
Название:Шоколадные Зайцы - Запад - Восток (1999) [TAK|Lossless|image + .cue] <Chanson>
Дата добавления:15 Июл 2016 23:03:25
Размер:310 MB
Раздают:
Качают:0
Форум:Русский Шансон (Lossless)

All rights reserved © 2015-2018