TORRENTS45.XYZ

Скачать Сладкоголосая птица юности / Sweet Bird of Youth (1962) DVDRip [H.264]


Сладкоголосая птица юности / Sweet Bird of Youth (1962) DVDRip [H.264]
Производство: США / Metro-Goldwyn-Mayer (MGM), Roxbury Productions Inc.
Жанр: Драма

Режиссер: Ричард Брукс
Актеры: Пол Ньюман, Джеральдин Пейдж, Ширли Найт, Эд Бегли, Рип Торн, Милдред Даннок, Мадлен Шервуд, Филип Эбботт, Кори Аллен, Бэрри Кехилл, Даб Тейлор, Джеймс Дуглас

Описание:
Предприимчивый молодой человек Чэнс Уэйн возвращается в родной город после долгих попыток попасть в Голливуд. С собой он привозит Александру Дель Лаго, увядающую кинозвезду, которую он пытается вернуть на экран, а заодно и самому проскочить в мир кино. Однако на родине он встречает свою бывшую возлюбленную Хэвенли, за роман с которой он и был в свое время изгнан из города отцом девушки, местным коррумпированным политиком. Хэвенли надеется возобновить давние отношения, и вскоре Чэнс оказывается меж двух огней…


Возраст: 16+ (зрителям, достигшим 16 лет)

Релиз от: Охрана (Torrents45.xyz)
Продолжительность: 01:59:56
Качество видео: DVDRip
Перевод: Многоголосый закадровый, авторский
Язык субтитров: Английский
Вид субтитров: Вшитые отключаемые

Видео: AVC/H.264, 720x304, ~1636 Kbps
Аудио 1: Русский, AC3, 2 ch, 192 Kbps, 48.0 kHz (MVO, Петербург 5-й канал)
Аудио 2: Русский, AC3, 2 ch, 192 Kbps, 48.0 kHz (AVO, А.Медведев)
Аудио 3: Английский, AC3, 1 ch, 192 Kbps, 48.0 kHz (Оригинал)

Mediainfo:

Код: выделить все

General
Unique ID                                : 194793444968044158284774182533054187261 (0x928BDA5541FD40D49780AFDC7FB1C6FD)
Complete name                            : F:\Downloads\Сладкоголосая птица юности. 1962. torrents45.xyzv
Format                                   : Matroska
Format version                           : Version 4 / Version 2
File size                                : 1.85 GiB
Duration                                 : 1h 59mn
Overall bit rate                         : 2 214 Kbps
Encoded date                             : UTC 2016-07-11 13:15:11
Writing application                      : mkvmerge v7.0.0 ('Where We Going') 32bit built on Jun  9 2014 15:08:34
Writing library                          : libebml v1.3.0 + libmatroska v1.4.1
DURATION                                 : 01:59:00.131000000
NUMBER_OF_FRAMES                         : 1640
NUMBER_OF_BYTES                          : 65782
_STATISTICS_WRITING_APP                  : mkvmerge v7.0.0 ('Where We Going') 32bit built on Jun  9 2014 15:08:34
_STATISTICS_WRITING_DATE_UTC             : 2016-07-11 13:15:11
_STATISTICS_TAGS                         : BPS DURATION NUMBER_OF_FRAMES NUMBER_OF_BYTES

Video
ID                                       : 1
Format                                   : AVC
Format/Info                              : Advanced Video Codec
Format profile                           : High@L3.1
Format settings, CABAC                   : Yes
Format settings, ReFrames                : 8 frames
Codec ID                                 : V_MPEG4/ISO/AVC
Duration                                 : 1h 59mn
Bit rate                                 : 1 636 Kbps
Width                                    : 720 pixels
Height                                   : 304 pixels
Display aspect ratio                     : 2.35:1
Frame rate mode                          : Constant
Frame rate                               : 23.976 fps
Color space                              : YUV
Chroma subsampling                       : 4:2:0
Bit depth                                : 8 bits
Scan type                                : Progressive
Bits/(Pixel*Frame)                       : 0.312
Stream size                              : 1.34 GiB (72%)
Title                                    : Sweet Bird of Youth
Writing library                          : x264 core 125 r2208 d9d2288
Encoding settings                        : cabac=1 / ref=8 / deblock=1:-1:-1 / analyse=0x3:0x133 / me=umh / subme=9 / psy=1 / psy_rd=1.00:0.10 / mixed_ref=1 / me_range=32 / chroma_me=1 / trellis=2 / 8x8dct=1 / cqm=0 / deadzone=21,11 / fast_pskip=0 / chroma_qp_offset=-3 / threads=6 / lookahead_threads=1 / sliced_threads=0 / nr=0 / decimate=1 / interlaced=0 / bluray_compat=0 / constrained_intra=0 / bframes=3 / b_pyramid=2 / b_adapt=2 / b_bias=0 / direct=3 / weightb=1 / open_gop=0 / weightp=2 / keyint=250 / keyint_min=25 / scenecut=40 / intra_refresh=0 / rc_lookahead=60 / rc=2pass / mbtree=1 / bitrate=1636 / ratetol=1.0 / qcomp=0.60 / qpmin=0 / qpmax=69 / qpstep=4 / cplxblur=20.0 / qblur=0.5 / ip_ratio=1.40 / aq=1:1.00
Language                                 : English
Default                                  : Yes
Forced                                   : No

Audio #1
ID                                       : 2
Format                                   : AC-3
Format/Info                              : Audio Coding 3
Mode extension                           : CM (complete main)
Format settings, Endianness              : Big
Codec ID                                 : A_AC3
Duration                                 : 1h 59mn
Bit rate mode                            : Constant
Bit rate                                 : 192 Kbps
Channel(s)                               : 2 channels
Channel positions                        : Front: L R
Sampling rate                            : 48.0 KHz
Bit depth                                : 16 bits
Compression mode                         : Lossy
Delay relative to video                  : 3ms
Stream size                              : 165 MiB (9%)
Title                                    : Многоголосый закадровый, Петербург 5-й канал
Language                                 : Russian
Default                                  : Yes
Forced                                   : No

Audio #2
ID                                       : 3
Format                                   : AC-3
Format/Info                              : Audio Coding 3
Mode extension                           : CM (complete main)
Format settings, Endianness              : Big
Codec ID                                 : A_AC3
Duration                                 : 1h 59mn
Bit rate mode                            : Constant
Bit rate                                 : 192 Kbps
Channel(s)                               : 2 channels
Channel positions                        : Front: L R
Sampling rate                            : 48.0 KHz
Bit depth                                : 16 bits
Compression mode                         : Lossy
Delay relative to video                  : 3ms
Stream size                              : 165 MiB (9%)
Title                                    : Авторский, А.Медведев
Language                                 : Russian
Default                                  : No
Forced                                   : No

Audio #3
ID                                       : 4
Format                                   : AC-3
Format/Info                              : Audio Coding 3
Mode extension                           : CM (complete main)
Format settings, Endianness              : Big
Codec ID                                 : A_AC3
Duration                                 : 1h 59mn
Bit rate mode                            : Constant
Bit rate                                 : 192 Kbps
Channel(s)                               : 1 channel
Channel positions                        : Front: C
Sampling rate                            : 48.0 KHz
Bit depth                                : 16 bits
Compression mode                         : Lossy
Delay relative to video                  : 3ms
Stream size                              : 165 MiB (9%)
Title                                    : Оригинал
Language                                 : English
Default                                  : No
Forced                                   : No

Text
ID                                       : 5
Format                                   : UTF-8
Codec ID                                 : S_TEXT/UTF8
Codec ID/Info                            : UTF-8 Plain Text
Title                                    : SRT
Language                                 : English
Default                                  : No
Forced                                   : No
Скриншоты:

Дополнительные скриншоты:



Все одноименные релизы в Клубе
Детали торрента:
Название:Сладкоголосая птица юности / Sweet Bird of Youth (1962) DVDRip [H.264]
Дата добавления:12 Июл 2016 12:32:51
Размер:1,85 GB
Раздают:
Качают:0
Форум:Зарубежная Классика (HD*Rip/LQ, DVDRip, SATRip, VHSRip)

All rights reserved © 2015-2018