TORRENTS45.XYZ

Скачать Группа «Топ-стоп» - 20 золотых уличных мелодий (2000) [FLAC|Lossless|image + .cue] <Chanson instrumentall >


Группа «Топ-стоп» - 20 золотых уличных мелодий (2000)
Год: 2000
Жанр: Chanson instrumentall
Издание: Русский Компакт Диск - RCD 40307
Продолжительность: 01:03:50

Кодек: FLAC
Битрейт: Lossless
Тип рипа: image + .cue

Треклист:
01 - Мама,я лётчика люблю
02 - Ночная атака
03 - Я Шура,ребёнок нежный
04 - Друзья,купите папиросы
05 - Рио-Рита
06 - Увяли розы
07 - У Чёрного моря
08 - Бабье лето
09 - Голубые глаза
10 - Чижик-пыжик
11 - Маруся отравилась
12 - Помню,помню я
13 - Утомлённое солнце
14 - Поспели вишни
15 - На Колыме
16 - Этап на север
17 - Гоп со смыком
18 - Семнадцать лет
19 - Шаланды полные кефали - гр.Ветер Времени
20 - Одесса,Одесса родная

Отчёт EAC:

Код:

Exact Audio Copy V0.99 prebeta 5 from 4. May 2009

Отчёт EAC об извлечении, выполненном 27. февраля 2012, 22:32

Топ-стоп,группа / 20 золотых уличных мелодий

Дисковод: PLEXTOR DVDR   PX-810SA   Adapter: 2  ID: 1

Режим чтения                 : Достоверность
Использование точного потока : Да
Отключение кэша аудио        : Да
Использование указателей C2  : Нет

Коррекция смещения при чтении                     : 48
Способность читать области Lead-in и Lead-out     : Нет
Заполнение пропущенных сэмплов тишиной            : Да
Удаление блоков с тишиной в начале и конце        : Нет
При вычислениях CRC использовались нулевые сэмплы : Да
Интерфейс                                         : Встроенный Win32-интерфейс для Win NT/2000

Выходной формат : Внутренние WAV-операции
Формат сэмплов  : 44.100 Гц; 16 бит; стерео

TOC извлечённого CD

     Трек |   Старт  | Длительность | Начальный сектор | Конечный сектор
    ---------------------------------------------------------------------
       1  |  0:00.00 |    2:22.56   |           0      |      10705
       2  |  2:22.56 |    2:59.66   |       10706      |      24196
       3  |  5:22.47 |    3:12.60   |       24197      |      38656
       4  |  8:35.32 |    3:43.59   |       38657      |      55440
       5  | 12:19.16 |    3:17.65   |       55441      |      70280
       6  | 15:37.06 |    3:37.42   |       70281      |      86597
       7  | 19:14.48 |    4:12.73   |       86598      |     105570
       8  | 23:27.46 |    1:59.63   |      105571      |     114558
       9  | 25:27.34 |    3:15.73   |      114559      |     129256
      10  | 28:43.32 |    3:10.17   |      129257      |     143523
      11  | 31:53.49 |    3:32.50   |      143524      |     159473
      12  | 35:26.24 |    3:06.38   |      159474      |     173461
      13  | 38:32.62 |    3:55.02   |      173462      |     191088
      14  | 42:27.64 |    2:44.50   |      191089      |     203438
      15  | 45:12.39 |    3:12.59   |      203439      |     217897
      16  | 48:25.23 |    2:48.55   |      217898      |     230552
      17  | 51:14.03 |    2:19.16   |      230553      |     240993
      18  | 53:33.19 |    2:58.38   |      240994      |     254381
      19  | 56:31.57 |    3:58.45   |      254382      |     272276
      20  | 60:30.27 |    3:19.44   |      272277      |     287245

Характеристики диапазона извлечения и сообщения об ошибках

Выбранный диапазон

     Имя файла F:\МУЗЫКА МОИ ОЦИФРОВКИ CD\Топ-стоп,группа - 20 золотых уличных мелодий.wav

     Пиковый уровень 100.0 %
     Качество диапазона 99.9 %
     CRC теста AD07FAED
     CRC копии AD07FAED
     Копирование... OK

Ошибок не произошло

AccurateRip: сводка

Трек  1  нет в базе данных
Трек  2  нет в базе данных
Трек  3  нет в базе данных
Трек  4  нет в базе данных
Трек  5  нет в базе данных
Трек  6  нет в базе данных
Трек  7  нет в базе данных
Трек  8  нет в базе данных
Трек  9  нет в базе данных
Трек 10  нет в базе данных
Трек 11  нет в базе данных
Трек 12  нет в базе данных
Трек 13  нет в базе данных
Трек 14  нет в базе данных
Трек 15  нет в базе данных
Трек 16  нет в базе данных
Трек 17  нет в базе данных
Трек 18  нет в базе данных
Трек 19  нет в базе данных
Трек 20  нет в базе данных

Ни одного трека нет в базе AccurateRip

Конец отчёта

Cue Sheet (.cue):

Код:

REM GENRE Chanson
REM DATE 2000
REM DISCID 140EF514
REM COMMENT "ExactAudioCopy v0.99pb5"
PERFORMER "Топ-стоп,группа"
TITLE "20 золотых уличных мелодий"
FILE "Топ-стоп,группа - 20 золотых уличных мелодий.flac" WAVE
  TRACK 01 AUDIO
    TITLE "Мама,я лётчика люблю"
    PERFORMER "Топ-стоп,группа"
    INDEX 01 00:00:00
  TRACK 02 AUDIO
    TITLE "Ночная атака"
    PERFORMER "Топ-стоп,группа"
    INDEX 01 02:22:56
  TRACK 03 AUDIO
    TITLE "Я Шура,ребёнок нежный"
    PERFORMER "Топ-стоп,группа"
    INDEX 01 05:22:47
  TRACK 04 AUDIO
    TITLE "Друзья,купите папиросы"
    PERFORMER "Топ-стоп,группа"
    INDEX 01 08:35:32
  TRACK 05 AUDIO
    TITLE "Рио-Рита"
    PERFORMER "Топ-стоп,группа"
    INDEX 01 12:19:16
  TRACK 06 AUDIO
    TITLE "Увяли розы"
    PERFORMER "Топ-стоп,группа"
    INDEX 01 15:37:06
  TRACK 07 AUDIO
    TITLE "У Чёрного моря"
    PERFORMER "Топ-стоп,группа"
    INDEX 01 19:14:48
  TRACK 08 AUDIO
    TITLE "Бабье лето"
    PERFORMER "Топ-стоп,группа"
    INDEX 01 23:27:46
  TRACK 09 AUDIO
    TITLE "Голубые глаза"
    PERFORMER "Топ-стоп,группа"
    INDEX 01 25:27:34
  TRACK 10 AUDIO
    TITLE "Чижик-пыжик"
    PERFORMER "Топ-стоп,группа"
    INDEX 01 28:43:32
  TRACK 11 AUDIO
    TITLE "Маруся отравилась"
    PERFORMER "Топ-стоп,группа"
    INDEX 01 31:53:49
  TRACK 12 AUDIO
    TITLE "Помню,помню я"
    PERFORMER "Топ-стоп,группа"
    INDEX 01 35:26:24
  TRACK 13 AUDIO
    TITLE "Утомлённое солнце"
    PERFORMER "Топ-стоп,группа"
    INDEX 01 38:32:62
  TRACK 14 AUDIO
    TITLE "Поспели вишни"
    PERFORMER "Топ-стоп,группа"
    INDEX 01 42:27:64
  TRACK 15 AUDIO
    TITLE "На Колыме"
    PERFORMER "Топ-стоп,группа"
    INDEX 01 45:12:39
  TRACK 16 AUDIO
    TITLE "Этап на север"
    PERFORMER "Топ-стоп,группа"
    INDEX 01 48:25:23
  TRACK 17 AUDIO
    TITLE "Гоп со смыком"
    PERFORMER "Топ-стоп,группа"
    INDEX 01 51:14:03
  TRACK 18 AUDIO
    TITLE "Семнадцать лет"
    PERFORMER "Топ-стоп,группа"
    INDEX 01 53:33:19
  TRACK 19 AUDIO
    TITLE "Шаланды полные кефали - гр.Ветер Времени"
    PERFORMER "Топ-стоп,группа"
    INDEX 01 56:31:57
  TRACK 20 AUDIO
    TITLE "Одесса,Одесса родная"
    PERFORMER "Топ-стоп,группа"
    INDEX 01 60:30:27

Отчёт auCDtect Task manager:

Код:

-----------------------

DON'T MODIFY THIS FILE

-----------------------

PERFORMER: auCDtect Task Manager, ver. 1.6.0 RC1 build 1.6.0.1
Copyright (c) 2008-2010 y-soft. All rights reserved
http://y-soft.org

ANALYZER: auCDtect: CD records authenticity detector, version 0.8.2
Copyright (c) 2004 Oleg Berngardt. All rights reserved.
Copyright (c) 2004 Alexander Djourik. All rights reserved.

FILE: Топ-стоп,группа - 20 золотых уличных мелодий.flac
  Size: 407698998 Hash: EB357350AA03E49C2815F38AF03ED4FE Accuracy: -m0
  Conclusion: MPEG 95%
  Signature: 22F82C1050DB5EF6F220CD1810825D718AA033B1

Спектрограмма:



covers






Поглощение/вытеснение
Только с согласия релизера

Pashketan
Детали торрента:
Название:Группа «Топ-стоп» - 20 золотых уличных мелодий (2000) [FLAC|Lossless|image + .cue] <Chanson instrumentall >
Дата добавления:08 Июл 2016 17:24:47
Размер:401 MB
Раздают:4
Качают:0
Форум:Русский Шансон (Lossless)

All rights reserved © 2015-2018