TORRENTS45.XYZ

Скачать Подвиги Геракла: Покоритель Микен (Геракл против Молоха) / Ercole contro Moloch (1963) DVD5


Подвиги Геракла: Покоритель Микен (Геракл против Молоха) / Ercole contro Moloch (1963) DVD5
Производство: Италия, Франция / Comptoir Francais du Film Production (CFFP)
Жанр: Драма, приключения
Режиссер: Джорджио Феррони
Актеры: Гордон Скотт, Алессандра Панаро, Розальба Нери, Артуро Доминичи, Мишель Лемуан, Жани Клэр, Нерио Бернарди, Нелло Паццафини, Гаэтано Скала, Женевьев Град

Описание:
Царица Микен Деметра поклоняется страшному богу Молоху, требующему человеческих жертвоприношений, а ее сын является живым воплощением Молоха. Десятки лет неприступные Микены и их кровавый бог держали в страхе окрестные государства. Много бесстрашных воинов и целые армии пали под стенами Микен. А Молох требует все новых и новых жертв. Только бесстрашный Геракл осмеливается бросить вызов зловещему Божеству...


Возраст: 12+ (зрителям достигшим 12 лет)

Релиз от: maroder1 (Torrents45.xyz)
Продолжительность: 01:34:59
Качество видео: DVD5
Перевод: Многоголосый закадровый (Фортуна-Фильм)
Субтитры: Нет
Дополнительные материалы: Нет

Видео: PAL, 720x576@1024x576 (16:9 ) VBR, ~3890 kbps, 25,00 fps
Аудио#1: AC3, 2 ch, 192 Kbps | Русский
Аудио#2: AC3, 2 ch, 192 Kbps | Французский

DVDInfo

Title:
Size: 3.04 Gb ( 3 184 892 KBytes ) - DVD-5
Enabled regions: 1, 2, 3, 4, 5, 6, 7, 8

VTS_01 :
Play Length: 01:34:59
Video: PAL 16:9 (720x576) VBR, Auto Letterboxed
Audio:
Russian (Dolby AC3, 2 ch)
Francais (Dolby AC3, 2 ch)

Mediainfo:

Код: выделить все

Общее
Полное имя                               : F:\[torrents45.xyz]_Ercole.contro.Moloch.1963.DVD5_maroder1\VIDEO_TS\VTS_01_1.VOB
Формат                                   : MPEG-PS
Размер файла                             : 1024 Мбайт
Продолжительность                        : 32 м.
Режим общего битрейта                    : Переменный
Общий поток                              : 4361 Кбит/сек

Видео
Идентификатор                            : 224 (0xE0)
Формат                                   : MPEG Video
Версия формата                           : Version 2
Профиль формата                          : Main@Main
Параметр BVOP формата                    : Да
Параметр матрицы формата                 : По умолчанию
Параметр GOP формата                     : M=3, N=13
Продолжительность                        : 32 м.
Вид битрейта                             : Переменный
Битрейт                                  : 3890 Кбит/сек
Максимальный битрейт                     : 9008 Кбит/сек
Ширина                                   : 720 пикселей
Высота                                   : 576 пикселей
Соотношение сторон                       : 16:9
Частота кадров                           : 25,000 кадров/сек
Стандарт вещания                         : PAL
Цветовое пространство                    : YUV
Субдискретизация насыщенности            : 4:2:0
Битовая глубина                          : 8 бит
Тип развёртки                            : Прогрессивная
Метод сжатия                             : С потерями
Бит/(Пиксели*Кадры)                      : 0.375
Размер потока                            : 913 Мбайт (89%)

Аудио #1
Идентификатор                            : 189 (0xBD)-128 (0x80)
Формат                                   : AC-3
Формат/Информация                        : Audio Coding 3
Расширение режима                        : CM (complete main)
Параметр Endianness формата              : Big
Режим смешивания                         : DVD-Video
Продолжительность                        : 32 м.
Вид битрейта                             : Постоянный
Битрейт                                  : 192 Кбит/сек
Каналы                                   : 2 канала
Расположение каналов                     : Front: L R
Частота                                  : 48,0 КГц
Битовая глубина                          : 16 бит
Метод сжатия                             : С потерями
Задержка видео                           : -72 мс.
Размер потока                            : 45,1 Мбайт (4%)

Аудио #2
Идентификатор                            : 189 (0xBD)-129 (0x81)
Формат                                   : AC-3
Формат/Информация                        : Audio Coding 3
Расширение режима                        : CM (complete main)
Параметр Endianness формата              : Big
Режим смешивания                         : DVD-Video
Продолжительность                        : 32 м.
Вид битрейта                             : Постоянный
Битрейт                                  : 192 Кбит/сек
Каналы                                   : 2 канала
Расположение каналов                     : Front: L R
Частота                                  : 48,0 КГц
Битовая глубина                          : 16 бит
Метод сжатия                             : С потерями
Задержка видео                           : -72 мс.
Размер потока                            : 45,1 Мбайт (4%)

Меню

Дополнительная информация

DVD скачен в сети. К французской дорожке добавлен и синхронизирован русский многоголосый профессиональный перевод студии "Фортуна-Фильм". Отдельное спасибо Sp1end1d за запись фильма с телеканала ТВ6 через видеомагнитофон и оцифровке звука с видеокассеты. В двух местах дефекта звука вставлен перевод от DVD-Магии. Меню самодельное, статичное, озвученное.

Скриншоты меню



Скриншоты


Все одноименные релизы в клубе
Детали торрента:
Название:Подвиги Геракла: Покоритель Микен (Геракл против Молоха) / Ercole contro Moloch (1963) DVD5
Дата добавления:24 Июн 2016 12:01:57
Размер:3,04 GB
Раздают:
Качают:0
Форум:Зарубежная Классика (DVD)

All rights reserved © 2015-2018