TORRENTS45.XYZ

Скачать Вечерний Ургант (2016.06.16) SATRip (cезон 9, выпуск 89)


Вечерний Ургант (2016.06.16) SATRip (cезон 9, выпуск 89)
Телекомпания: Первый канал
Жанр: ТВ-Шоу

Ведущий: Иван Ургант
Гости: Константин Райкин

Описание:
Каждый вечер с понедельника по четверг за полчаса до полуночи Иван Ургант провожает этот день вместе с вами. С хорошим настроением, хорошей музыкой и теми людьми, которые ему интересны. "Вечерний Ургант" с понедельника по четверг

Релиз от: TRAY_MAX
Продолжительность: ~ 00:30:36
Качество видео: SATRip
Субтитры: Отсутствуют

Видео: MPEG4, XviD, 720x400 (16:9), 25.000 fps, 1 800 Kbps (0.250 bit/pixel)
Аудио: AC-3, 48.0 KHz, 2 ch, 192 Kbps, CBR

Mediainfo:

Код:

Формат                                   : AVI
Формат/Информация                        : Audio Video Interleave
Размер файла                             : 438 Мбайт
Продолжительность                        : 30 м.
Общий поток                              : 2002 Кбит/сек
Программа кодирования                    : VirtualDubMod 1.5.10.3 | www.virtualdub-fr.org || (build 2550/release)
Библиотека кодирования                   : VirtualDubMod build 2550/release

Видео
Идентификатор                            : 0
Формат                                   : MPEG-4 Visual
Профиль формата                          : Advanced Simple@L5
Параметр BVOP формата                    : 2
Параметр QPel формата                    : Нет
Параметр GMC формата                     : Без точки перехода
Параметр матрицы формата                 : Default (H.263)
Идентификатор кодека                     : XVID
Идентификатор кодека/Подсказка           : XviD
Продолжительность                        : 30 м.
Битрейт                                  : 1800 Кбит/сек
Ширина                                   : 720 пикселей
Высота                                   : 400 пикселей
Соотношение сторон                       : 16:9
Частота кадров                           : 25,000 кадров/сек
Цветовое пространство                    : YUV
Субдискретизация насыщенности            : 4:2:0
Битовая глубина                          : 8 бит
Тип развёртки                            : Прогрессивная
Метод сжатия                             : С потерями
Бит/(Пиксели*Кадры)                      : 0.250
Размер потока                            : 394 Мбайт (90%)
Библиотека кодирования                   : XviD 1.2.1 (UTC 2008-12-04)

Аудио
Идентификатор                            : 1
Формат                                   : AC-3
Формат/Информация                        : Audio Coding 3
Расширение режима                        : CM (complete main)
Параметр Endianness формата              : Big
Идентификатор кодека                     : 2000
Продолжительность                        : 30 м.
Вид битрейта                             : Постоянный
Битрейт                                  : 192 Кбит/сек
Каналы                                   : 2 канала
Расположение каналов                     : Front: L R
Частота                                  : 48,0 КГц
Битовая глубина                          : 16 бит
Метод сжатия                             : С потерями
Размер потока                            : 42,0 Мбайт (10%)
Выравнивание                             : Разделение по промежуткам
Продолжительность промежутка             : 40  мс. (1,00 видеокадр)
Время предзагрузки промежутка            : 500  мс.
 
Скриншоты:



Все одноименные релизы в Клубе
Детали торрента:
Название:Вечерний Ургант (2016.06.16) SATRip (cезон 9, выпуск 89)
Дата добавления:17 Июн 2016 18:03:07
Размер:438 MB
Раздают:
Качают:0
Форум:Телешоу

All rights reserved © 2015-2018