TORRENTS45.XYZ

Скачать Joe Zawinul - The ESC Years (1992-1996) 2011, ESC Records[FLAC|Lossless|tracks + .cue] <World Fusion, Jazz Fusion>


Joe Zawinul - The ESC Years (1992-1996) 2011, ESC Records
Год: 2011
Год записи: 1992-1996
Жанр: World Fusion, Jazz Fusion
Издание: ESC Records - 03744-2
Продолжительность: 01:10:59

Кодек: FLAC (tracks+.cue)
Битрейт: Lossless
Источник (релизер): ruskaval
Страна-производитель диска: EEC
Наличие сканов в содержимом раздачи: да

Треклист:

01.Borges Buenos Aires (Part 1) [04:42]
02.Cafe Andalusia (A Day in Tunesia) [07:14]
03.Introduction To A Mighty Theme [01:53]
04.Waraya [06:06]
05.Rooftops Of Vienna [06:03]
06.When There Was Royalty [06:05]
07.Bimoya [06:38]
08.Tower Of Silence [06:11]
09.Orient Express [07:56]
10.The Search [02:04]
11.All About Simon [04:59]
12.In An Island Way [04:51]
13.Otzi [06:24]

Отчёт EAC:

Код:

Exact Audio Copy V1.0 beta 2 from 29. April 2011

EAC extraction logfile from 8. November 2012, 17:51

Joe Zawinul / The ESC Years

Used drive  : TEAC    DV-W522GMA   Adapter: 3  ID: 1

Read mode               : Secure
Utilize accurate stream : Yes
Defeat audio cache      : Yes
Make use of C2 pointers : No

Read offset correction                      : 6
Overread into Lead-In and Lead-Out          : No
Fill up missing offset samples with silence : Yes
Delete leading and trailing silent blocks   : No
Null samples used in CRC calculations       : Yes
Used interface                              : Native Win32 interface for Win NT & 2000
Gap handling                                : Appended to previous track

Used output format              : User Defined Encoder
Selected bitrate                : 768 kBit/s
Quality                         : High
Add ID3 tag                     : No
Command line compressor         : C:\Program Files\Exact Audio Copy\Flac\flac.exe
Additional command line options : -8 -V -T "ARTIST=%artist%" -T "TITLE=%title%" -T "ALBUM=%albumtitle%" -T "DATE=%year%" -T "TRACKNUMBER=%tracknr%" -T "TOTALTRACKS=%numtracks%" -T "GENRE=%genre%" -T "ALBUMARTIST=%albumartist%" -T "ALBUM ARTIST=%albumartist%

TOC of the extracted CD

     Track |   Start  |  Length  | Start sector | End sector
    ---------------------------------------------------------
        1  |  0:00.00 |  4:41.04 |         0    |    21078
        2  |  4:41.04 |  7:13.13 |     21079    |    53566
        3  | 11:54.17 |  1:52.25 |     53567    |    61991
        4  | 13:46.42 |  6:05.20 |     61992    |    89386
        5  | 19:51.62 |  6:02.57 |     89387    |   116593
        6  | 25:54.44 |  6:04.22 |    116594    |   143915
        7  | 31:58.66 |  6:37.35 |    143916    |   173725
        8  | 38:36.26 |  6:10.53 |    173726    |   201528
        9  | 44:47.04 |  7:55.11 |    201529    |   237164
       10  | 52:42.15 |  2:03.08 |    237165    |   246397
       11  | 54:45.23 |  4:58.57 |    246398    |   268804
       12  | 59:44.05 |  4:50.66 |    268805    |   290620
       13  | 64:34.71 |  6:23.35 |    290621    |   319380

Track  1

     Filename F:\My Flac\Joe Zawinul - The ESC Years (2012) [FLAC]\01 - Borges Buenos Aires  (Part 1).wav

     Pre-gap length  0:00:02.00

     Peak level 99.9 %
     Extraction speed 1.9 X
     Track quality 100.0 %
     Test CRC 37A363CD
     Copy CRC 37A363CD
     Track not present in AccurateRip database
     Copy OK

Track  2

     Filename F:\My Flac\Joe Zawinul - The ESC Years (2012) [FLAC]\02 - Cafe Andalusia  (A Day in Tunesia).wav

     Peak level 99.9 %
     Extraction speed 4.2 X
     Track quality 100.0 %
     Test CRC 562B6DD6
     Copy CRC 562B6DD6
     Track not present in AccurateRip database
     Copy OK

Track  3

     Filename F:\My Flac\Joe Zawinul - The ESC Years (2012) [FLAC]\03 - Introduction To A Mighty Theme.wav

     Peak level 100.0 %
     Extraction speed 3.7 X
     Track quality 100.0 %
     Test CRC 43FF7F9F
     Copy CRC 43FF7F9F
     Track not present in AccurateRip database
     Copy OK

Track  4

     Filename F:\My Flac\Joe Zawinul - The ESC Years (2012) [FLAC]\04 - Waraya.wav

     Peak level 100.0 %
     Extraction speed 4.8 X
     Track quality 100.0 %
     Test CRC FDBA5461
     Copy CRC FDBA5461
     Track not present in AccurateRip database
     Copy OK

Track  5

     Filename F:\My Flac\Joe Zawinul - The ESC Years (2012) [FLAC]\05 - Rooftops Of Vienna.wav

     Peak level 99.9 %
     Extraction speed 5.1 X
     Track quality 100.0 %
     Test CRC 649EE624
     Copy CRC 649EE624
     Track not present in AccurateRip database
     Copy OK

Track  6

     Filename F:\My Flac\Joe Zawinul - The ESC Years (2012) [FLAC]\06 - When There Was Royalty.wav

     Peak level 97.5 %
     Extraction speed 5.6 X
     Track quality 100.0 %
     Test CRC C5E70A40
     Copy CRC C5E70A40
     Track not present in AccurateRip database
     Copy OK

Track  7

     Filename F:\My Flac\Joe Zawinul - The ESC Years (2012) [FLAC]\07 - Bimoya.wav

     Peak level 100.0 %
     Extraction speed 4.5 X
     Track quality 100.0 %
     Test CRC C94BB610
     Copy CRC C94BB610
     Track not present in AccurateRip database
     Copy OK

Track  8

     Filename F:\My Flac\Joe Zawinul - The ESC Years (2012) [FLAC]\08 - Tower Of Silence.wav

     Peak level 99.9 %
     Extraction speed 3.5 X
     Track quality 100.0 %
     Test CRC 147D18E0
     Copy CRC 147D18E0
     Track not present in AccurateRip database
     Copy OK

Track  9

     Filename F:\My Flac\Joe Zawinul - The ESC Years (2012) [FLAC]\09 - Orient Express.wav

     Peak level 100.0 %
     Extraction speed 3.6 X
     Track quality 100.0 %
     Test CRC 0D463F57
     Copy CRC 0D463F57
     Track not present in AccurateRip database
     Copy OK

Track 10

     Filename F:\My Flac\Joe Zawinul - The ESC Years (2012) [FLAC]\10 - The Search.wav

     Peak level 99.8 %
     Extraction speed 5.7 X
     Track quality 100.0 %
     Test CRC BDA58B47
     Copy CRC BDA58B47
     Track not present in AccurateRip database
     Copy OK

Track 11

     Filename F:\My Flac\Joe Zawinul - The ESC Years (2012) [FLAC]\11 - All About Simon.wav

     Peak level 99.9 %
     Extraction speed 6.7 X
     Track quality 100.0 %
     Test CRC 189A361A
     Copy CRC 189A361A
     Track not present in AccurateRip database
     Copy OK

Track 12

     Filename F:\My Flac\Joe Zawinul - The ESC Years (2012) [FLAC]\12 - In An Island Way.wav

     Peak level 100.0 %
     Extraction speed 7.0 X
     Track quality 100.0 %
     Test CRC A346E072
     Copy CRC A346E072
     Track not present in AccurateRip database
     Copy OK

Track 13

     Filename F:\My Flac\Joe Zawinul - The ESC Years (2012) [FLAC]\13 - Otzi.wav

     Peak level 100.0 %
     Extraction speed 1.4 X
     Track quality 99.7 %
     Test CRC BEBADBB1
     Copy CRC BEBADBB1
     Track not present in AccurateRip database
     Copy OK

None of the tracks are present in the AccurateRip database

No errors occurred

End of status report

==== Log checksum C01B1B8FB0F66C8E92063E80BC8B84962595D5479FA64F9D28580463C1CDAA9E ====

Cue Sheet (.cue):

Код:

REM GENRE Jazz
REM DATE 2012
REM DISCID D110A20D
REM COMMENT "ExactAudioCopy v1.0b2"
PERFORMER "Joe Zawinul"
TITLE "The ESC Years"
FILE "01 - Borges Buenos Aires  (Part 1).wav" WAVE
  TRACK 01 AUDIO
    TITLE "Borges Buenos Aires  (Part 1)"
    PERFORMER "Joe Zawinul"
    INDEX 01 00:00:00
FILE "02 - Cafe Andalusia  (A Day in Tunesia).wav" WAVE
  TRACK 02 AUDIO
    TITLE "Cafe Andalusia  (A Day in Tunesia)"
    PERFORMER "Joe Zawinul"
    INDEX 01 00:00:00
FILE "03 - Introduction To A Mighty Theme.wav" WAVE
  TRACK 03 AUDIO
    TITLE "Introduction To A Mighty Theme"
    PERFORMER "Joe Zawinul"
    INDEX 01 00:00:00
FILE "04 - Waraya.wav" WAVE
  TRACK 04 AUDIO
    TITLE "Waraya"
    PERFORMER "Joe Zawinul"
    INDEX 01 00:00:00
FILE "05 - Rooftops Of Vienna.wav" WAVE
  TRACK 05 AUDIO
    TITLE "Rooftops Of Vienna"
    PERFORMER "Joe Zawinul"
    INDEX 01 00:00:00
FILE "06 - When There Was Royalty.wav" WAVE
  TRACK 06 AUDIO
    TITLE "When There Was Royalty"
    PERFORMER "Joe Zawinul"
    INDEX 01 00:00:00
FILE "07 - Bimoya.wav" WAVE
  TRACK 07 AUDIO
    TITLE "Bimoya"
    PERFORMER "Joe Zawinul"
    INDEX 01 00:00:00
FILE "08 - Tower Of Silence.wav" WAVE
  TRACK 08 AUDIO
    TITLE "Tower Of Silence"
    PERFORMER "Joe Zawinul"
    INDEX 01 00:00:00
FILE "09 - Orient Express.wav" WAVE
  TRACK 09 AUDIO
    TITLE "Orient Express"
    PERFORMER "Joe Zawinul"
    INDEX 01 00:00:00
FILE "10 - The Search.wav" WAVE
  TRACK 10 AUDIO
    TITLE "The Search"
    PERFORMER "Joe Zawinul"
    INDEX 01 00:00:00
FILE "11 - All About Simon.wav" WAVE
  TRACK 11 AUDIO
    TITLE "All About Simon"
    PERFORMER "Joe Zawinul"
    INDEX 01 00:00:00
FILE "12 - In An Island Way.wav" WAVE
  TRACK 12 AUDIO
    TITLE "In An Island Way"
    PERFORMER "Joe Zawinul"
    INDEX 01 00:00:00
FILE "13 - Otzi.wav" WAVE
  TRACK 13 AUDIO
    TITLE "Otzi"
    PERFORMER "Joe Zawinul"
    INDEX 01 00:00:00

Отчёт auCDtect Task manager:

Код:

-----------------------

DON'T MODIFY THIS FILE

-----------------------

PERFORMER: auCDtect Task Manager, ver. 1.6.0 RC1 build 1.6.0.1
Copyright (c) 2008-2010 y-soft. All rights reserved
http://y-soft.org

ANALYZER: auCDtect: CD records authenticity detector, version 0.8.2
Copyright (c) 2004 Oleg Berngardt. All rights reserved.
Copyright (c) 2004 Alexander Djourik. All rights reserved.

FILE: 13 - Otzi.flac
  Size: 34946863 Hash: D604F66B1891BE059806DF56194B9458 Accuracy: -m0
  Conclusion: CDDA 100%
  Signature: 370F42707F6526B12155085BFCD9BF06E178E3C6
FILE: 12 - In An Island Way.flac
  Size: 33491967 Hash: CBF5C3CE1D6ABD408BF0D7127B0EF06B Accuracy: -m0
  Conclusion: CDDA 100%
  Signature: 24E38B0150ABD35A77D0FD48345BC1BE0A310405
FILE: 11 - All About Simon.flac
  Size: 37709691 Hash: 4392379D0E5663933C7247B96FCE3106 Accuracy: -m0
  Conclusion: CDDA 100%
  Signature: CBE97157AB5087DCC45FB7FE9E07EAA7490B163B
FILE: 10 - The Search.flac
  Size: 12944534 Hash: 12F88D5D5415154290219E41C590CF90 Accuracy: -m0
  Conclusion: CDDA 100%
  Signature: C6F3DEC6BF994EB14DC666D516CBA29A4E0144A3
FILE: 09 - Orient Express.flac
  Size: 57008998 Hash: F7627F51016DA2D36B5D366A92355EB4 Accuracy: -m0
  Conclusion: CDDA 100%
  Signature: 6D3E25C2E45C095FDBF011F5AC1D794D15266F10
FILE: 08 - Tower Of Silence.flac
  Size: 43437097 Hash: 6A02D2202E25A68993F13158CC6A7B11 Accuracy: -m0
  Conclusion: CDDA 100%
  Signature: BD08910C840C95B5B287705F51F5AEF1CCF1E921
FILE: 07 - Bimoya.flac
  Size: 48292489 Hash: 73F3DE8048432D9B325A8866F845595B Accuracy: -m0
  Conclusion: CDDA 99%
  Signature: 5E02D6CEB371C7C5571A74F807BD120E83C59031
FILE: 06 - When There Was Royalty.flac
  Size: 28763459 Hash: B863FD70022ED202E9FE80626F07E108 Accuracy: -m0
  Conclusion: CDDA 100%
  Signature: 5753634F0EC7FF3096505BC88B9C992C3A939359
FILE: 05 - Rooftops Of Vienna.flac
  Size: 44841236 Hash: 5988BBFA58ABB223433DFD72A5951562 Accuracy: -m0
  Conclusion: CDDA 99%
  Signature: BE0CFB831C3D7E345B2ADEE27644D51FEF516752
FILE: 04 - Waraya.flac
  Size: 43999366 Hash: E01960B9FC99DF399277FD599B3EFB8D Accuracy: -m0
  Conclusion: CDDA 99%
  Signature: 69222189EB3370069573B451736ABF6FAC156B3D
FILE: 03 - Introduction To A Mighty Theme.flac
  Size: 12022090 Hash: A0A9FEE3E85977E1A29A2F6E9D6736A4 Accuracy: -m0
  Conclusion: CDDA 76%
  Signature: E665A0879D7808C8E33FC06C0C556E83FFC9C1A5
FILE: 02 - Cafe Andalusia  (A Day in Tunesia).flac
  Size: 51498678 Hash: DF6028DC293CD36712D4B9196514616B Accuracy: -m0
  Conclusion: CDDA 100%
  Signature: 42567ED3BF68FE0B728811192EA916E0E75F3F36
FILE: 01 - Borges Buenos Aires  (Part 1).flac
  Size: 28414043 Hash: D6612AFE7F8C8B05543544CDC5E726B2 Accuracy: -m0
  Conclusion: CDDA 100%
  Signature: 701AB131DD697DDE2DD5B9BD3132380F71CDBE4D

Детали торрента:
Название:Joe Zawinul - The ESC Years (1992-1996) 2011, ESC Records[FLAC|Lossless|tracks + .cue] <World Fusion, Jazz Fusion>
Дата добавления:17 Июн 2016 11:59:00
Размер:484 MB
Раздают:
Качают:0
Форум:Jazz (Lossless)

All rights reserved © 2015-2019