TORRENTS45.XYZ

Скачать Mongo Santamaria - Mr. Watermelon Man & La Bamba (1965) Remaster, 2014, Sony Music[FLAC|Lossless|tracks + .cue] <Afro-Cuban Jazz, Latin Jazz>


Mongo Santamaria - Mr. Watermelon Man & La Bamba (1965) Remaster, 2014, Sony Music
Год: 2014
Год записи: 1965
Жанр: Afro-Cuban Jazz, Latin Jazz
Издание: Columbia / Sony Music - SICP 4053
Продолжительность: 00:41:00

Кодек: FLAC (tracks+.cue)
Битрейт: Lossless
Источник (релизер): ruskaval
Страна-производитель диска: Japan
Наличие сканов в содержимом раздачи: да

Треклист:

01.La Bamba [04:01]
02.Fat Back [03:20]
03.Summertime [04:46]
04.Manha De Carnaval (Morning Of The Carnival) (From 'Black Orpheus') [04:50]
05.Jose Outside [02:43]
06.Coconut Milk [02:37]
07.Watermelon Man [03:19]
08.Do It To It [03:59]
09.Ricky Tick [02:25]
10.Streak O'Lean [02:53]
11.Just Say Goodbye [03:18]
12.From Me To You All [02:53]

Отчёт EAC:

Код:

Exact Audio Copy V1.1 from 23. June 2015

EAC extraction logfile from 1. June 2016, 2:57

Mongo Santamaria / Mr. Watermelon Man

Used drive  : HL-DT-STDVDRAM GP50NW41   Adapter: 1  ID: 0

Read mode               : Secure
Utilize accurate stream : Yes
Defeat audio cache      : Yes
Make use of C2 pointers : No

Read offset correction                      : 6
Overread into Lead-In and Lead-Out          : No
Fill up missing offset samples with silence : Yes
Delete leading and trailing silent blocks   : No
Null samples used in CRC calculations       : Yes
Used interface                              : Native Win32 interface for Win NT & 2000
Gap handling                                : Appended to previous track

Used output format              : User Defined Encoder
Selected bitrate                : 1024 kBit/s
Quality                         : High
Add ID3 tag                     : No
Command line compressor         : C:\Program Files (x86)\FLAC Frontend\tools\flac.exe
Additional command line options : -8 -V -T "ARTIST=%artist%" -T "TITLE=%title%" -T "ALBUM=%albumtitle%" -T "DATE=%year%" -T "TRACKNUMBER=%tracknr%" -T "TOTALTRACKS=%numtracks%" -T "GENRE=%genre%" -T "ALBUMARTIST=%albumartist%" -T "ALBUM ARTIST=%albumartist%" -T "COMMENT=EAC Secure Mode, Test & Copy, AccurateRip, FLAC -8" %source%

TOC of the extracted CD

     Track |   Start  |  Length  | Start sector | End sector
    ---------------------------------------------------------
        1  |  0:00.00 |  4:00.61 |         0    |    18060
        2  |  4:00.61 |  3:19.40 |     18061    |    33025
        3  |  7:20.26 |  4:45.31 |     33026    |    54431
        4  | 12:05.57 |  4:49.24 |     54432    |    76130
        5  | 16:55.06 |  2:42.63 |     76131    |    88343
        6  | 19:37.69 |  2:36.69 |     88344    |   100112
        7  | 22:14.63 |  3:18.19 |    100113    |   114981
        8  | 25:33.07 |  3:58.61 |    114982    |   132892
        9  | 29:31.68 |  2:24.20 |    132893    |   143712
       10  | 31:56.13 |  2:52.47 |    143713    |   156659
       11  | 34:48.60 |  3:17.59 |    156660    |   171493
       12  | 38:06.44 |  2:52.52 |    171494    |   184445

Track  1

     Filename D:\_EAC\Mongo Santamaria - Mr. Watermelon Man (1965) [FLAC] {SICP 4053}\01 - La Bamba.wav

     Pre-gap length  0:00:02.00

     Peak level 100.0 %
     Extraction speed 2.7 X
     Track quality 100.0 %
     Test CRC E5BA40A6
     Copy CRC E5BA40A6
     Track not present in AccurateRip database
     Copy OK

Track  2

     Filename D:\_EAC\Mongo Santamaria - Mr. Watermelon Man (1965) [FLAC] {SICP 4053}\02 - Fat Back.wav

     Pre-gap length  0:00:02.57

     Peak level 100.0 %
     Extraction speed 2.3 X
     Track quality 99.9 %
     Test CRC AB6D0728
     Copy CRC AB6D0728
     Track not present in AccurateRip database
     Copy OK

Track  3

     Filename D:\_EAC\Mongo Santamaria - Mr. Watermelon Man (1965) [FLAC] {SICP 4053}\03 - Summertime.wav

     Pre-gap length  0:00:03.14

     Peak level 100.0 %
     Extraction speed 3.3 X
     Track quality 100.0 %
     Test CRC A38CD2F0
     Copy CRC A38CD2F0
     Track not present in AccurateRip database
     Copy OK

Track  4

     Filename D:\_EAC\Mongo Santamaria - Mr. Watermelon Man (1965) [FLAC] {SICP 4053}\04 - Manha De Carnaval (Morning Of The Carnival) (From ''Black Orpheus'').wav

     Pre-gap length  0:00:03.11

     Peak level 99.9 %
     Extraction speed 3.6 X
     Track quality 100.0 %
     Test CRC E85CE933
     Copy CRC E85CE933
     Track not present in AccurateRip database
     Copy OK

Track  5

     Filename D:\_EAC\Mongo Santamaria - Mr. Watermelon Man (1965) [FLAC] {SICP 4053}\05 - Jose Outside.wav

     Pre-gap length  0:00:03.04

     Peak level 100.0 %
     Extraction speed 3.5 X
     Track quality 100.0 %
     Test CRC 39B855FE
     Copy CRC 39B855FE
     Track not present in AccurateRip database
     Copy OK

Track  6

     Filename D:\_EAC\Mongo Santamaria - Mr. Watermelon Man (1965) [FLAC] {SICP 4053}\06 - Coconut Milk.wav

     Pre-gap length  0:00:03.11

     Peak level 100.0 %
     Extraction speed 3.5 X
     Track quality 100.0 %
     Test CRC 898801DE
     Copy CRC 898801DE
     Track not present in AccurateRip database
     Copy OK

Track  7

     Filename D:\_EAC\Mongo Santamaria - Mr. Watermelon Man (1965) [FLAC] {SICP 4053}\07 - Watermelon Man.wav

     Pre-gap length  0:00:03.27

     Peak level 100.0 %
     Extraction speed 3.9 X
     Track quality 100.0 %
     Test CRC CABAA8A7
     Copy CRC CABAA8A7
     Track not present in AccurateRip database
     Copy OK

Track  8

     Filename D:\_EAC\Mongo Santamaria - Mr. Watermelon Man (1965) [FLAC] {SICP 4053}\08 - Do It To It.wav

     Pre-gap length  0:00:03.09

     Peak level 100.0 %
     Extraction speed 4.2 X
     Track quality 100.0 %
     Test CRC 02544321
     Copy CRC 02544321
     Track not present in AccurateRip database
     Copy OK

Track  9

     Filename D:\_EAC\Mongo Santamaria - Mr. Watermelon Man (1965) [FLAC] {SICP 4053}\09 - Ricky Tick.wav

     Pre-gap length  0:00:03.25

     Peak level 100.0 %
     Extraction speed 4.0 X
     Track quality 100.0 %
     Test CRC C99147A5
     Copy CRC C99147A5
     Track not present in AccurateRip database
     Copy OK

Track 10

     Filename D:\_EAC\Mongo Santamaria - Mr. Watermelon Man (1965) [FLAC] {SICP 4053}\10 - Streak O'Lean.wav

     Pre-gap length  0:00:03.10

     Peak level 99.9 %
     Extraction speed 3.3 X
     Track quality 99.9 %
     Test CRC 9BCC9ADC
     Copy CRC 9BCC9ADC
     Track not present in AccurateRip database
     Copy OK

Track 11

     Filename D:\_EAC\Mongo Santamaria - Mr. Watermelon Man (1965) [FLAC] {SICP 4053}\11 - Just Say Goodbye.wav

     Pre-gap length  0:00:02.47

     Peak level 100.0 %
     Extraction speed 4.5 X
     Track quality 100.0 %
     Test CRC 5B50CDB8
     Copy CRC 5B50CDB8
     Track not present in AccurateRip database
     Copy OK

Track 12

     Filename D:\_EAC\Mongo Santamaria - Mr. Watermelon Man (1965) [FLAC] {SICP 4053}\12 - From Me To You All.wav

     Pre-gap length  0:00:03.00

     Peak level 99.9 %
     Extraction speed 4.4 X
     Track quality 100.0 %
     Test CRC 226CC354
     Copy CRC 226CC354
     Track not present in AccurateRip database
     Copy OK

None of the tracks are present in the AccurateRip database

No errors occurred

End of status report

==== Log checksum C9C8A5B5F41C197914A46FB8AB6BCF16DE63B03E7D9C988FF9DA41DF66988B5E ====

Cue Sheet (.cue):

Код:

REM GENRE Jazz
REM DATE 1965
REM DISCID 9E099B0C
REM COMMENT "ExactAudioCopy v1.1"
PERFORMER "Mongo Santamaria"
TITLE "Mr. Watermelon Man"
FILE "01 - La Bamba.wav" WAVE
  TRACK 01 AUDIO
    TITLE "La Bamba"
    PERFORMER "Mongo Santamaria"
    INDEX 01 00:00:00
  TRACK 02 AUDIO
    TITLE "Fat Back"
    PERFORMER "Mongo Santamaria"
    INDEX 00 03:58:04
FILE "02 - Fat Back.wav" WAVE
    INDEX 01 00:00:00
  TRACK 03 AUDIO
    TITLE "Summertime"
    PERFORMER "Mongo Santamaria"
    INDEX 00 03:16:26
FILE "03 - Summertime.wav" WAVE
    INDEX 01 00:00:00
  TRACK 04 AUDIO
    TITLE "Manha De Carnaval (Morning Of The Carnival) (From 'Black Orpheus')"
    PERFORMER "Mongo Santamaria"
    INDEX 00 04:42:20
FILE "04 - Manha De Carnaval (Morning Of The Carnival) (From ''Black Orpheus'').wav" WAVE
    INDEX 01 00:00:00
  TRACK 05 AUDIO
    TITLE "Jose Outside"
    PERFORMER "Mongo Santamaria"
    INDEX 00 04:46:20
FILE "05 - Jose Outside.wav" WAVE
    INDEX 01 00:00:00
  TRACK 06 AUDIO
    TITLE "Coconut Milk"
    PERFORMER "Mongo Santamaria"
    INDEX 00 02:39:52
FILE "06 - Coconut Milk.wav" WAVE
    INDEX 01 00:00:00
  TRACK 07 AUDIO
    TITLE "Watermelon Man"
    PERFORMER "Mongo Santamaria"
    INDEX 00 02:33:42
FILE "07 - Watermelon Man.wav" WAVE
    INDEX 01 00:00:00
  TRACK 08 AUDIO
    TITLE "Do It To It"
    PERFORMER "Mongo Santamaria"
    INDEX 00 03:15:10
FILE "08 - Do It To It.wav" WAVE
    INDEX 01 00:00:00
  TRACK 09 AUDIO
    TITLE "Ricky Tick"
    PERFORMER "Mongo Santamaria"
    INDEX 00 03:55:36
FILE "09 - Ricky Tick.wav" WAVE
    INDEX 01 00:00:00
  TRACK 10 AUDIO
    TITLE "Streak O'Lean"
    PERFORMER "Mongo Santamaria"
    INDEX 00 02:21:10
FILE "10 - Streak O'Lean.wav" WAVE
    INDEX 01 00:00:00
  TRACK 11 AUDIO
    TITLE "Just Say Goodbye"
    PERFORMER "Mongo Santamaria"
    INDEX 00 02:50:00
FILE "11 - Just Say Goodbye.wav" WAVE
    INDEX 01 00:00:00
  TRACK 12 AUDIO
    TITLE "From Me To You All"
    PERFORMER "Mongo Santamaria"
    INDEX 00 03:14:59
FILE "12 - From Me To You All.wav" WAVE
    INDEX 01 00:00:00

Отчёт auCDtect Task manager:

Код:

-----------------------

DON'T MODIFY THIS FILE

-----------------------

PERFORMER: auCDtect Task Manager, ver. 1.6.0 RC1 build 1.6.0.1
Copyright (c) 2008-2010 y-soft. All rights reserved
http://y-soft.org

ANALYZER: auCDtect: CD records authenticity detector, version 0.8.2
Copyright (c) 2004 Oleg Berngardt. All rights reserved.
Copyright (c) 2004 Alexander Djourik. All rights reserved.

FILE: 12 - From Me To You All.flac
  Size: 19908667 Hash: AF136C02DD8B86940438E4658A296AE1 Accuracy: -m0
  Conclusion: CDDA 100%
  Signature: 5DBE03FA48AEA520146250939F1EF9B512DBA543
FILE: 11 - Just Say Goodbye.flac
  Size: 22399547 Hash: 6566CE8D665150CC661F3554615504D2 Accuracy: -m0
  Conclusion: CDDA 100%
  Signature: FCBF6B1990D49ADFB4DF113CD4D8771C878DBD83
FILE: 10 - Streak O'Lean.flac
  Size: 19035671 Hash: D6B069D65CCF2952D8103A851B1EE379 Accuracy: -m0
  Conclusion: CDDA 100%
  Signature: DA634E5FD30028211E6E52825B9ED9FB3F6B6E2D
FILE: 09 - Ricky Tick.flac
  Size: 16943073 Hash: F0880AB5FA4974F560459B85C9B7F77E Accuracy: -m0
  Conclusion: CDDA 100%
  Signature: 46518682A3360F6DDC291DCACB7B0F684BAAE61C
FILE: 08 - Do It To It.flac
  Size: 27862899 Hash: 5FB238E7C4519EFB59A614BBD3B74515 Accuracy: -m0
  Conclusion: CDDA 100%
  Signature: 0A76A80E3DD9877CC831A1E0E5CDB945C7466B05
FILE: 07 - Watermelon Man.flac
  Size: 23501140 Hash: 3E225D449F7ACEE046DA550C3A5C5A95 Accuracy: -m0
  Conclusion: CDDA 100%
  Signature: FD6A6321C675DD41051CED6315DE347FDA5DBB0F
FILE: 06 - Coconut Milk.flac
  Size: 18312827 Hash: FF720177C369B4FA2B16425ABF3B5420 Accuracy: -m0
  Conclusion: CDDA 100%
  Signature: 4504072D997AC3EBBEED9E0ECCD44A336B08A88A
FILE: 05 - Jose Outside.flac
  Size: 18717019 Hash: 3DA3EE5639179C63B9F92BFAFF2CEC15 Accuracy: -m0
  Conclusion: CDDA 100%
  Signature: AB95F5333E63F4241DFF08E6344027E9FACA6DF1
FILE: 04 - Manha De Carnaval (Morning Of The Carnival) (From ''Black Orpheus'').flac
  Size: 27984356 Hash: CDFD18CE7341A7AE7507B8A19C0D5A4C Accuracy: -m0
  Conclusion: CDDA 100%
  Signature: CA499E86A29ACDE18A5A6BE6A0F52797678D78B5
FILE: 03 - Summertime.flac
  Size: 33156121 Hash: A44C0CE7E6B639FD2E035E054ACEC7D7 Accuracy: -m0
  Conclusion: CDDA 100%
  Signature: E213AFA50F55CFD14738DC4EE1AD6CF76A40CFD1
FILE: 02 - Fat Back.flac
  Size: 23594233 Hash: 46710EC94AA3EEAE3FAE397FDCA56B84 Accuracy: -m0
  Conclusion: CDDA 100%
  Signature: 8605DC3FF69891A1C64B39CFAED14B9671574590
FILE: 01 - La Bamba.flac
  Size: 29501186 Hash: F73F3235731EA9B5CDFF70D87354DB04 Accuracy: -m0
  Conclusion: CDDA 100%
  Signature: 8495458211D7F21E0C33A341F49520A17ED2FD15

Состав

Mongo Santamaria - leader and bongo drums
Marty Sheller - trumpet
Bobby Capers - alto and baritone sax, flute
Hubert Laws - flute, tenor sax
Rodger Grant - piano
Victor Venegas - bass
Carmello Garcia - timbales, drums

Детали торрента:
Название:Mongo Santamaria - Mr. Watermelon Man & La Bamba (1965) Remaster, 2014, Sony Music[FLAC|Lossless|tracks + .cue] <Afro-Cuban Jazz, Latin Jazz>
Дата добавления:07 Июн 2016 10:41:34
Размер:293 MB
Раздают:1
Качают:0
Форум:Jazz (Lossless)

All rights reserved © 2015-2019