TORRENTS45.XYZ

Скачать The Kelly Family - Christmas For All (1994) [FLAC|Lossless|image + .cue] <Soft Rock>


The Kelly Family - Christmas For All (1994)
Автор рипа: Ready.zp
Год: 1994
Жанр: Soft Rock
Издание: Kel-Life Production/EMI - 50606/7243 8 35774 2 2KEL
Продолжительность: 00:55:23
Кодек: FLAC
Битрейт: Lossless
Тип рипа: image + .cue
Треклист:
01. One More Happy Christmas
02. Santa Maria
03. White Christmas
04. Peces
05. Rudolph, The Rednosed Reindeer
06. Two Front Teeth
07. First Noel
08. Santa Maria (spanish version)
09. Ave Maria
10. Oh Holy Night
11. Chi-qui-rri-tin
12. Who'll Come With Me
13. Jingle Bells
14. Little Drummer Boy
15. We Are The World
16. An Angel (spanish version)
17. Santa Maria (reprise)

Отчёт EAC:

Код:

Exact Audio Copy V1.0 beta 3 from 29. August 2011

EAC extraction logfile from 4. December 2013, 14:22

The Kelly Family / Christmas For All

Used drive  : SAMSUNG DVD-ROM SD-616E   Adapter: 3  ID: 0

Read mode               : Secure
Utilize accurate stream : Yes
Defeat audio cache      : Yes
Make use of C2 pointers : No

Read offset correction                      : 12
Overread into Lead-In and Lead-Out          : No
Fill up missing offset samples with silence : Yes
Delete leading and trailing silent blocks   : No
Null samples used in CRC calculations       : Yes
Used interface                              : Native Win32 interface for Win NT & 2000

Used output format              : User Defined Encoder
Selected bitrate                : 768 kBit/s
Quality                         : High
Add ID3 tag                     : No
Command line compressor         : C:\Program Files\Exact Audio Copy\FLAC\FLAC.EXE
Additional command line options : -6 -V -T "ARTIST=%artist%" -T "TITLE=%title%" -T "ALBUM=%albumtitle%" -T "DATE=%year%" -T "TRACKNUMBER=%tracknr%" -T "GENRE=%genre%" -T "COMMENT=%comment%" -T "BAND=%albuminterpret%" -T "ALBUMARTIST=%albuminterpret%" -T "COMPOSER=%composer%" %haslyrics%--tag-from-file=LYRICS="%lyricsfile%"%haslyrics% -T "DISCNUMBER=%cdnumber%" -T "TOTALDISCS=%totalcds%" -T "TOTALTRACKS=%numtracks%" %hascover%--picture="%coverfile%"%hascover% %source% -o %dest%

TOC of the extracted CD

     Track |   Start  |  Length  | Start sector | End sector
    ---------------------------------------------------------
        1  |  0:00.00 |  3:43.00 |         0    |    16724
        2  |  3:43.00 |  3:08.47 |     16725    |    30871
        3  |  6:51.47 |  3:09.28 |     30872    |    45074
        4  | 10:01.00 |  3:48.60 |     45075    |    62234
        5  | 13:49.60 |  3:06.72 |     62235    |    76256
        6  | 16:56.57 |  2:20.60 |     76257    |    86816
        7  | 19:17.42 |  3:14.60 |     86817    |   101426
        8  | 22:32.27 |  3:09.03 |    101427    |   115604
        9  | 25:41.30 |  3:55.37 |    115605    |   133266
       10  | 29:36.67 |  2:30.68 |    133267    |   144584
       11  | 32:07.60 |  3:21.15 |    144585    |   159674
       12  | 35:29.00 |  3:49.17 |    159675    |   176866
       13  | 39:18.17 |  2:59.48 |    176867    |   190339
       14  | 42:17.65 |  2:43.30 |    190340    |   202594
       15  | 45:01.20 |  5:22.30 |    202595    |   226774
       16  | 50:23.50 |  3:46.32 |    226775    |   243756
       17  | 54:10.07 |  1:12.38 |    243757    |   249194

Range status and errors

Selected range

     Filename C:\Documents and Settings\Borya\Desktop\KelFamChris\The Kelly Family - Christmas For All.wav

     Peak level 100.0 %
     Extraction speed 3.3 X
     Range quality 100.0 %
     Test CRC E8A9ADC0
     Copy CRC E8A9ADC0
     Copy OK

No errors occurred

AccurateRip summary

Track  1  accurately ripped (confidence 11)  [45BD2EFF]  (AR v2)
Track  2  accurately ripped (confidence 11)  [7EC1008F]  (AR v2)
Track  3  accurately ripped (confidence 11)  [7614801F]  (AR v2)
Track  4  accurately ripped (confidence 11)  [433FAF34]  (AR v2)
Track  5  accurately ripped (confidence 11)  [F1B8E601]  (AR v2)
Track  6  accurately ripped (confidence 11)  [104D2C28]  (AR v2)
Track  7  accurately ripped (confidence 11)  [FCA09FAA]  (AR v2)
Track  8  accurately ripped (confidence 11)  [DF3AE71D]  (AR v2)
Track  9  accurately ripped (confidence 11)  [F5CBE986]  (AR v2)
Track 10  accurately ripped (confidence 11)  [F008C019]  (AR v2)
Track 11  accurately ripped (confidence 11)  [2EC8799B]  (AR v2)
Track 12  accurately ripped (confidence 11)  [553DAA80]  (AR v2)
Track 13  accurately ripped (confidence 11)  [DF437AAC]  (AR v2)
Track 14  accurately ripped (confidence 11)  [645D2845]  (AR v2)
Track 15  accurately ripped (confidence 11)  [3C88BF60]  (AR v2)
Track 16  accurately ripped (confidence 11)  [7C809805]  (AR v2)
Track 17  accurately ripped (confidence 11)  [1F1A4ED2]  (AR v2)

All tracks accurately ripped

End of status report

==== Log checksum 9D067EED1A01A50DA5EEDB01E2D0C93FE15DCCBA376E750F20DB25A65AA76603 ====

Cue Sheet (.cue):

Код:

REM GENRE Misc
REM DATE 1995
REM DISCID CF0CFA11
REM COMMENT "ExactAudioCopy v1.0b3"
PERFORMER "The Kelly Family"
TITLE "Christmas For All"
FILE "The Kelly Family - Christmas For All.flac" WAVE
  TRACK 01 AUDIO
    TITLE "One More Happy Christmas"
    PERFORMER "The Kelly Family"
    INDEX 01 00:00:00
  TRACK 02 AUDIO
    TITLE "Santa Maria"
    PERFORMER "The Kelly Family"
    INDEX 00 03:40:57
    INDEX 01 03:43:00
  TRACK 03 AUDIO
    TITLE "White Christmas"
    PERFORMER "The Kelly Family"
    INDEX 00 06:50:47
    INDEX 01 06:51:47
  TRACK 04 AUDIO
    TITLE "Peces"
    PERFORMER "The Kelly Family"
    INDEX 00 09:58:70
    INDEX 01 10:01:00
  TRACK 05 AUDIO
    TITLE "Rudolph, The Rednosed Reindeer"
    PERFORMER "The Kelly Family"
    INDEX 00 13:46:30
    INDEX 01 13:49:60
  TRACK 06 AUDIO
    TITLE "Two Front Teeth"
    PERFORMER "The Kelly Family"
    INDEX 00 16:56:10
    INDEX 01 16:56:57
  TRACK 07 AUDIO
    TITLE "First Noel"
    PERFORMER "The Kelly Family"
    INDEX 00 19:13:30
    INDEX 01 19:17:42
  TRACK 08 AUDIO
    TITLE "Santa Maria (Spanish Version)"
    PERFORMER "The Kelly Family"
    INDEX 00 22:30:32
    INDEX 01 22:32:27
  TRACK 09 AUDIO
    TITLE "Ave Maria"
    PERFORMER "The Kelly Family"
    INDEX 00 25:39:72
    INDEX 01 25:41:30
  TRACK 10 AUDIO
    TITLE "Oh Holy Night"
    PERFORMER "The Kelly Family"
    INDEX 00 29:35:12
    INDEX 01 29:36:67
  TRACK 11 AUDIO
    TITLE "Chi-qui-rri-tin"
    PERFORMER "The Kelly Family"
    INDEX 00 32:04:32
    INDEX 01 32:07:60
  TRACK 12 AUDIO
    TITLE "Who'll Come With Me"
    PERFORMER "The Kelly Family"
    INDEX 00 35:27:47
    INDEX 01 35:29:00
  TRACK 13 AUDIO
    TITLE "Jingle Bells"
    PERFORMER "The Kelly Family"
    INDEX 00 39:15:52
    INDEX 01 39:18:17
  TRACK 14 AUDIO
    TITLE "Little Drummer Boy"
    PERFORMER "The Kelly Family"
    INDEX 00 42:14:72
    INDEX 01 42:17:65
  TRACK 15 AUDIO
    TITLE "We Are The World"
    PERFORMER "The Kelly Family"
    INDEX 00 45:00:52
    INDEX 01 45:01:20
  TRACK 16 AUDIO
    TITLE "An Angel (Spanish Version)"
    PERFORMER "The Kelly Family"
    INDEX 00 50:22:35
    INDEX 01 50:23:50
  TRACK 17 AUDIO
    TITLE "Santa Maria (Reprise)"
    PERFORMER "The Kelly Family"
    INDEX 00 54:09:05
    INDEX 01 54:10:07

Отчёт auCDtect Task manager:

Код:

-----------------------

DON'T MODIFY THIS FILE

-----------------------

PERFORMER: auCDtect Task Manager, ver. 1.6.0 RC1 build 1.6.0.1
Copyright (c) 2008-2010 y-soft. All rights reserved
http://y-soft.org

ANALYZER: auCDtect: CD records authenticity detector, version 0.8.2
Copyright (c) 2004 Oleg Berngardt. All rights reserved.
Copyright (c) 2004 Alexander Djourik. All rights reserved.

FILE: The Kelly Family - Christmas For All.flac
  Size: 374520745 Hash: A2BB1F40F5D2692BC2FE7D28C94B6CB8 Accuracy: -m0
  Conclusion: CDDA 100%
  Signature: 1B9181E1934398C1C8A9EE9CC010A697600C1A52

Отчёт DRM:

Код:

foobar2000 1.3.9 / Замер динамического диапазона (DR) 1.1.1
Дата отчёта:    2015-12-31 00:33:26

--------------------------------------------------------------------------------
Анализ:   The Kelly Family / Christmas For All
--------------------------------------------------------------------------------

DR         Пики         RMS           Продолжительность трека
--------------------------------------------------------------------------------
DR11       0.00 дБ   -13.66 дБ      3:43 1-One More Happy Christmas
DR11      -1.50 дБ   -13.98 дБ      3:09 2-Santa Maria
DR13       0.00 дБ   -14.16 дБ      3:09 3-White Christmas
DR12      -0.50 дБ   -13.48 дБ      3:49 4-Peces
DR13      -1.00 дБ   -14.34 дБ      3:07 5-Rudolph, The Rednosed Reindeer
DR14      -1.00 дБ   -16.12 дБ      2:21 6-Two Front Teeth
DR11       0.00 дБ   -13.52 дБ      3:15 7-First Noel
DR8       -0.10 дБ   -10.63 дБ      3:09 8-Santa Maria (Spanish Version)
DR12      -0.05 дБ   -14.12 дБ      3:55 9-Ave Maria
DR12      -0.20 дБ   -14.78 дБ      2:31 10-Oh Holy Night
DR11      -0.60 дБ   -12.10 дБ      3:21 11-Chi-qui-rri-tin
DR11      -1.00 дБ   -14.59 дБ      3:49 12-Who'll Come With Me
DR12      -0.04 дБ   -13.99 дБ      3:00 13-Jingle Bells
DR12       0.00 дБ   -15.02 дБ      2:43 14-Little Drummer Boy
DR11       0.00 дБ   -13.21 дБ      5:22 15-We Are The World
DR8        0.00 дБ   -10.57 дБ      3:46 16-An Angel (Spanish Version)
DR17      -0.20 дБ   -23.18 дБ      1:13 17-Santa Maria (Reprise)
--------------------------------------------------------------------------------

Количество треков:  17
Реальные значения DR:  DR12

Частота:      44100 Гц
Каналов:      2
Разрядность:     16
Битрейт:      902 кбит/с
Кодек:      FLAC
================================================================================

Спектрограмма:



Covers:







YouTube

Детали торрента:
Название:The Kelly Family - Christmas For All (1994) [FLAC|Lossless|image + .cue] <Soft Rock>
Дата добавления:07 Июн 2016 06:14:47
Размер:412 MB
Раздают:2
Качают:0
Форум:Rock (Lossless)

All rights reserved © 2015-2019