TORRENTS45.XYZ

Скачать The Kelly Family - Almost Heaven (1996) [FLAC|Lossless|image + .cue] <Country Rock, Pop Rock>


The Kelly Family - Almost Heaven (1996)
Автор рипа: Konstantin_slash
Год: 1996
Жанр: Country Rock, Pop Rock
Издание: Kel-Life – 7243 4 89861 2 2 (Germany)
Продолжительность: 00:48:17
Кодек: FLAC
Битрейт: Lossless
Тип рипа: image + .cue
Треклист:
01. When The Boys Come Into Town
02. Every Baby
03. I Can't Help Myself
04. Nanana
05. You Belong To Me
06. Staying Alive
07. Come Back To Me
08. Fell In Love With An Alien
09. Hey Diddle Diddle
10. Like A Queen
11. Stars Fall From Heaven
12. Thunder
13. Calling Heaven
14. Nothing Like Home

Отчёт EAC:

Код:

Exact Audio Copy V0.99 prebeta 4 from 23. January 2008

Отчёт EAC об извлечении, выполненном 13. июля 2008, 15:49

Kelly Family / Almost Heaven

Дисковод: PLEXTOR DVDR   PX-716A   Adapter: 0  ID: 0

Режим чтения                 : Достоверность
Использование точного потока : Да
Отключение кэша аудио        : Да
Использование указателей C2  : Нет

Коррекция смещения при чтении                     : 30
Способность читать области Lead-in и Lead-out     : Нет
Заполнение пропущенных сэмплов тишиной            : Да
Удаление блоков с тишиной в начале и конце        : Нет
При вычислениях CRC использовались нулевые сэмплы : Да
Интерфейс                                         : Встроенный Win32-интерфейс для Win NT/2000

Выходной формат : Внутренние WAV-операции
Формат сэмплов  : 44.100 Гц; 16 бит; стерео

TOC извлечённого CD

     Трек |   Старт  | Длительность | Начальный сектор | Конечный сектор
    ---------------------------------------------------------------------
       1  |  0:00.00 |    3:17.11   |           0      |      14785
       2  |  3:17.11 |    2:57.50   |       14786      |      28110
       3  |  6:14.61 |    3:07.73   |       28111      |      42208
       4  |  9:22.59 |    4:02.69   |       42209      |      60427
       5  | 13:25.53 |    3:27.01   |       60428      |      75953
       6  | 16:52.54 |    2:58.49   |       75954      |      89352
       7  | 19:51.28 |    3:38.62   |       89353      |     105764
       8  | 23:30.15 |    3:12.28   |      105765      |     120192
       9  | 26:42.43 |    2:44.23   |      120193      |     132515
      10  | 29:26.66 |    2:56.38   |      132516      |     145753
      11  | 32:23.29 |    3:25.29   |      145754      |     161157
      12  | 35:48.58 |    3:44.35   |      161158      |     177992
      13  | 39:33.18 |    4:58.59   |      177993      |     200401
      14  | 44:32.02 |    3:44.44   |      200402      |     217245

Характеристики диапазона извлечения и сообщения об ошибках

Выбранный диапазон

     Имя файла E:\EAC_rip\Kelly Family - Almost Heaven.wav

     Пиковый уровень 96.6 %
     Качество диапазона 99.9 %
     CRC копии F0173EBD
     Копирование... OK

Ошибок не произошло

AccurateRip: сводка

Трек  1  точное извлечение (доверие 1)  [2AFF620A]
Трек  2  точное извлечение (доверие 1)  [9BC59C9E]
Трек  3  точное извлечение (доверие 1)  [7FD7B924]
Трек  4  точное извлечение (доверие 1)  [22B2B3A8]
Трек  5  точное извлечение (доверие 1)  [374B9644]
Трек  6  точное извлечение (доверие 1)  [52DE97D6]
Трек  7  точное извлечение (доверие 1)  [F9278257]
Трек  8  точное извлечение (доверие 1)  [043C61D1]
Трек  9  точное извлечение (доверие 1)  [82F68857]
Трек 10  точное извлечение (доверие 1)  [F172B164]
Трек 11  точное извлечение (доверие 1)  [72ACE487]
Трек 12  точное извлечение (доверие 1)  [338446FC]
Трек 13  точное извлечение (доверие 1)  [77DF5734]
Трек 14  точное извлечение (доверие 1)  [0448A695]

Все треки извлечены точно

Конец отчёта

Cue Sheet (.cue):

Код:

REM GENRE Pop
REM DATE 1996
REM DISCID BF0B500E
REM COMMENT "ExactAudioCopy v0.99pb4"
PERFORMER "Kelly Family"
TITLE "Almost Heaven"
FILE "Kelly Family - Almost Heaven.flac" WAVE
  TRACK 01 AUDIO
    TITLE "When The Boys Come Into Town"
    PERFORMER "Kelly Family"
    INDEX 01 00:00:00
  TRACK 02 AUDIO
    TITLE "Every Baby"
    PERFORMER "Kelly Family"
    INDEX 00 03:15:15
    INDEX 01 03:17:11
  TRACK 03 AUDIO
    TITLE "I Can't Help Myself"
    PERFORMER "Kelly Family"
    INDEX 00 06:12:68
    INDEX 01 06:14:61
  TRACK 04 AUDIO
    TITLE "Nanana"
    PERFORMER "Kelly Family"
    INDEX 00 09:20:63
    INDEX 01 09:22:59
  TRACK 05 AUDIO
    TITLE "You Belong To Me"
    PERFORMER "Kelly Family"
    INDEX 00 13:23:58
    INDEX 01 13:25:53
  TRACK 06 AUDIO
    TITLE "Staying Alive"
    PERFORMER "Kelly Family"
    INDEX 00 16:50:60
    INDEX 01 16:52:54
  TRACK 07 AUDIO
    TITLE "Come Back To Me"
    PERFORMER "Kelly Family"
    INDEX 00 19:49:38
    INDEX 01 19:51:28
  TRACK 08 AUDIO
    TITLE "Fell In Love With An Alien"
    PERFORMER "Kelly Family"
    INDEX 00 23:28:26
    INDEX 01 23:30:15
  TRACK 09 AUDIO
    TITLE "Hey Diddle Diddle"
    PERFORMER "Kelly Family"
    INDEX 00 26:40:51
    INDEX 01 26:42:43
  TRACK 10 AUDIO
    TITLE "Like A Queen"
    PERFORMER "Kelly Family"
    INDEX 00 29:25:04
    INDEX 01 29:26:66
  TRACK 11 AUDIO
    TITLE "Stars Fall From Heaven"
    PERFORMER "Kelly Family"
    INDEX 00 32:21:42
    INDEX 01 32:23:29
  TRACK 12 AUDIO
    TITLE "Thunder"
    PERFORMER "Kelly Family"
    INDEX 00 35:46:68
    INDEX 01 35:48:58
  TRACK 13 AUDIO
    TITLE "Calling Heaven"
    PERFORMER "Kelly Family"
    INDEX 00 39:31:23
    INDEX 01 39:33:18
  TRACK 14 AUDIO
    TITLE "Nothing Like Home"
    PERFORMER "Kelly Family"
    INDEX 00 44:30:08
    INDEX 01 44:32:02

Отчёт auCDtect Task manager:

Код:

-----------------------

DON'T MODIFY THIS FILE

-----------------------

PERFORMER: auCDtect Task Manager, ver. 1.6.0 RC1 build 1.6.0.1
Copyright (c) 2008-2010 y-soft. All rights reserved
http://y-soft.org

ANALYZER: auCDtect: CD records authenticity detector, version 0.8.2
Copyright (c) 2004 Oleg Berngardt. All rights reserved.
Copyright (c) 2004 Alexander Djourik. All rights reserved.

FILE: Kelly Family - Almost Heaven.flac
  Size: 344579292 Hash: 74FA5A4A59EC75952329CEF38FE2FB54 Accuracy: -m0
  Conclusion: CDDA 100%
  Signature: 7DB2D6C28C27C6949D82A243173DBB8B73BAD04E

Отчёт DRM:

Код:

foobar2000 1.1.3 / Dynamic Range Meter 1.1.1
log date: 2016-06-04 12:56:33

--------------------------------------------------------------------------------
Analyzed: Kelly Family / Almost Heaven
--------------------------------------------------------------------------------

DR         Peak         RMS     Duration Track
--------------------------------------------------------------------------------
DR7       -0.30 dB    -8.50 dB      3:17 ?-When The Boys Come Into Town
DR9       -0.30 dB   -12.33 dB      2:58 ?-Every Baby
DR5       -0.60 dB    -8.93 dB      3:08 ?-I Can't Help Myself
DR7       -0.30 dB    -8.93 dB      4:03 ?-Nanana
DR6       -0.30 dB    -9.17 dB      3:27 ?-You Belong To Me
DR7       -0.30 dB   -10.55 dB      2:59 ?-Staying Alive
DR9       -0.30 dB   -13.55 dB      3:39 ?-Come Back To Me
DR10      -0.30 dB   -13.54 dB      3:12 ?-Fell In Love With An Alien
DR7       -0.30 dB    -9.21 dB      2:44 ?-Hey Diddle Diddle
DR11      -0.30 dB   -13.87 dB      2:57 ?-Like A Queen
DR9       -0.30 dB   -11.84 dB      3:25 ?-Stars Fall From Heaven
DR8       -0.30 dB   -10.28 dB      3:44 ?-Thunder
DR6       -0.30 dB    -9.62 dB      4:59 ?-Calling Heaven
DR6       -0.30 dB    -9.29 dB      3:45 ?-Nothing Like Home
--------------------------------------------------------------------------------

Number of tracks:  14
Official DR value: DR8

Samplerate:        44100 Hz
Channels:          2
Bits per sample:   16
Bitrate:           952 kbps
Codec:             FLAC
================================================================================

Спектрограмма:



Covers:





YouTube

Детали торрента:
Название:The Kelly Family - Almost Heaven (1996) [FLAC|Lossless|image + .cue] <Country Rock, Pop Rock>
Дата добавления:04 Июн 2016 11:17:21
Размер:339 MB
Раздают:1
Качают:0
Форум:Rock (Lossless)

All rights reserved © 2015-2019