TORRENTS45.XYZ

Скачать The Kelly Family - Growin' Up (1997) [APE|Lossless|image + .cue] <Country Rock, Pop Rock>


The Kelly Family - Growin' Up (1997)
Автор рипа: digital2015
Год: 1997
Жанр: Country Rock, Pop Rock
Издание: Kel-Life – 7243 8 23028 2 7 (Europe)
Продолжительность: 00:41:46
Кодек: APE
Битрейт: Lossless
Тип рипа: image + .cue
Треклист:
01. Because It's Love
02. Angels Flying
03. I'll Swim I'll Swim
04. Life Is Hard Enough
05. Wish I Were A Swallow
06. Ego
07. One More Song
08. Rock'n Roll Stole My Soul
09. Red Shoes
10. Leave It To The Spirits
11. Big Mouth On TV
12. Another World
13. All Along The Way (I Will Be With You)

Информация об исполнителе:

The Kelly Family (Семья Келли, Келли Фемили)— европейская фолк/рок/поп-группа, состоящая из членов одной семьи. 9 братьев и сестёр Kelly — продюсеры своих альбомов, организаторы концертов, авторы и исполнители своих песен.
У отца Дениэла Келли — 4 ребенка от первого брака. От второго брака у Дэниэла и Барбары 8 детей. Вся семья под руководством Дэниэла и Барбары с детства начала заниматься музыкой, петь и выпускать альбомы.
Много лет семья Келли вела странствующий образ жизни — ездила по Европе на двухэтажном автобусе и на своей лодке. В это время стиль Келли был — длинные волосы — как у сестер, так и у братьев, и этнические, необычные костюмы.
Сейчас их лодка Sean o’Kelley и их автобус находятся в Музее техники в Шпайере (нем. Technik-Museum Speyer) — (Рейнланд-Пфальц), Германия. (Музей техники в Шпайере)
С 1979 по 2005 Келли записали 23 студийных альбома.
С 1990 Келли получили огромную популярность. Они продали более 3 миллионов дисков.
Большинство Kelly продолжают активную творческую музыкальную деятельность. Пол, Кэти, Джон, Патриция, Джимми, Пэдди, Майте и Анджело выпускают сольные альбомы и гастролируют. Джоуи оставил музыку ради карьеры спортсмена и предпринимателя. Барби оставила сцену из-за проблем со здоровьем.
Награды
Лазерный диск «Almost Heaven» разошёлся трехмиллионным тиражом в Европе. Этого хватает для получения статуса платинового диска в Германии, Швейцарии, Чехии, Польше, Норвегии, Голландии и Испании.
Келли получили награды «Echo», «Comet», «Bravo Otto», «Goldene Europa», «Goldener Löwe», «Goldene Kamera», «Bambi», «RSH-Gold».
Состав
Kathy Kelly
John Kelly
Patricia Kelly
de:Jimmy Kelly
Joey Kelly
Barby Kelly
Paddy Kelly
Maite Kelly
Angelo Kelly
Всего в семье 12 детей, и 11 из них составляли первоначальный состав «The Kelly Family»: Кэролайн, Пол, Кэти, Джон, Патриция, Джимми, Джоуи, Барби, Пэдди, Майте, Анджело. Кэролайн и Пол покинули группу до большого успеха и широкой публике неизвестны.

Отчёт EAC:

Код:

Exact Audio Copy V1.0 beta 3 from 29. August 2011

Отчёт EAC об извлечении, выполненном 28. мая 2016, 19:56

The Kelly Family / Growin' Up

Дисковод: _NEC    NR-7700A   Adapter: 3  ID: 1

Режим чтения                 : Достоверность
Использование точного потока : Да
Отключение кэша аудио        : Да
Использование указателей C2  : Нет

Коррекция смещения при чтении                     : 685
Способность читать области Lead-in и Lead-out     : Нет
Заполнение пропущенных сэмплов тишиной            : Да
Удаление блоков с тишиной в начале и конце        : Нет
При вычислениях CRC использовались нулевые сэмплы : Да
Интерфейс                                         : Встроенный Win32-интерфейс для Win NT/2000

Выходной формат : Внутренние WAV-операции
Формат сэмплов  : 44.100 Гц; 16 бит; стерео

TOC извлечённого CD

     Трек |   Старт  | Длительность | Начальный сектор | Конечный сектор
    ---------------------------------------------------------------------
       1  |  0:00.00 |    3:46.27   |           0      |      16976
       2  |  3:46.27 |    3:58.68   |       16977      |      34894
       3  |  7:45.20 |    3:13.17   |       34895      |      49386
       4  | 10:58.37 |    3:42.15   |       49387      |      66051
       5  | 14:40.52 |    3:00.70   |       66052      |      79621
       6  | 17:41.47 |    2:53.25   |       79622      |      92621
       7  | 20:34.72 |    4:19.10   |       92622      |     112056
       8  | 24:54.07 |    3:23.40   |      112057      |     127321
       9  | 28:17.47 |    4:09.55   |      127322      |     146051
      10  | 32:27.27 |    2:55.60   |      146052      |     159236
      11  | 35:23.12 |    2:44.48   |      159237      |     171584
      12  | 38:07.60 |    3:59.02   |      171585      |     189511
      13  | 42:06.62 |    4:33.58   |      189512      |     210044

Характеристики диапазона извлечения и сообщения об ошибках

Выбранный диапазон

     Имя файла G:\[Torrents45.xyz] The Kelly Family - Crown' Up [CD] - 1997 (APE)\The Kelly Family - Growin' Up.wav

     Пиковый уровень 98.8 %
     Скорость извлечения 4.0 X
     Качество диапазона 100.0 %
     CRC теста 7122398F
     CRC копии 7122398F
     Копирование... OK

Ошибок не произошло

AccurateRip: сводка

Трек  1  точность не определена (достоверность 26)  [B7D31316], AccurateRip вернул [CB217B8C]  (AR v2)
Трек  2  точность не определена (достоверность 26)  [1F2A5A6E], AccurateRip вернул [786C4B1D]  (AR v2)
Трек  3  точность не определена (достоверность 26)  [33531654], AccurateRip вернул [39DB69F8]  (AR v2)
Трек  4  точность не определена (достоверность 25)  [1D85E1EE], AccurateRip вернул [ABC6CD6C]  (AR v2)
Трек  5  точность не определена (достоверность 26)  [39C6027B], AccurateRip вернул [68C0F9B9]  (AR v2)
Трек  6  точность не определена (достоверность 25)  [DF7D8FAB], AccurateRip вернул [D84274B4]  (AR v2)
Трек  7  точность не определена (достоверность 26)  [AC436984], AccurateRip вернул [753A5D4C]  (AR v2)
Трек  8  точность не определена (достоверность 26)  [75E7EABC], AccurateRip вернул [BD9D13D7]  (AR v2)
Трек  9  точность не определена (достоверность 26)  [EFE0D39B], AccurateRip вернул [E523F8F3]  (AR v2)
Трек 10  точность не определена (достоверность 26)  [FF64855E], AccurateRip вернул [14BEE448]  (AR v2)
Трек 11  точность не определена (достоверность 26)  [3A0EED08], AccurateRip вернул [803A9238]  (AR v2)
Трек 12  точность не определена (достоверность 25)  [98EF6281], AccurateRip вернул [D732951D]  (AR v2)
Трек 13  точность не определена (достоверность 26)  [1A088E66], AccurateRip вернул [E973F7EC]  (AR v2)

Ни один трек не прошёл проверки на точность
В вашей базе может быть иной вариант штамповки диска

Конец отчёта

==== Контрольная сумма отчёта 87678D4860C896B307F659B2877B6CEA7E8A6833C171C85C7C23FBCE222AEA96 ====

Отчёт DRM:

Код:

foobar2000 1.1.3 / Dynamic Range Meter 1.1.1
log date: 2016-05-31 09:47:33

--------------------------------------------------------------------------------
Analyzed: The Kelly Family / Growin' Up
--------------------------------------------------------------------------------

DR         Peak         RMS     Duration Track
--------------------------------------------------------------------------------
DR8       -0.20 dB   -10.84 dB      3:46 ?-Because It's Love
DR8       -0.20 dB   -11.51 dB      3:59 ?-Angels Flying
DR6       -0.50 dB    -8.54 dB      3:13 ?-I'll Swim I'll Swim
DR8       -0.10 dB   -10.83 dB      3:42 ?-Life Is Hard Enough
DR8       -0.20 dB   -10.62 dB      3:01 ?-Wish I Were A Swallow
DR6       -0.20 dB    -8.70 dB      2:53 ?-Ego
DR6       -0.50 dB    -8.76 dB      4:19 ?-One More Song
DR5       -0.20 dB    -8.02 dB      3:24 ?-Rock'n Roll Stole My Soul
DR9       -0.10 dB   -11.96 dB      4:10 ?-Red Shoes
DR8       -0.20 dB   -10.45 dB      2:56 ?-Leave It To The Spirits
DR8       -0.20 dB   -10.57 dB      2:45 ?-Big Mouth On TV
DR9       -0.20 dB   -11.59 dB      3:59 ?-Another World
DR7       -0.20 dB   -10.04 dB      4:34 ?-All Along The Way (I Will Be With You)
--------------------------------------------------------------------------------

Number of tracks:  13
Official DR value: DR8

Samplerate:        44100 Hz
Channels:          2
Bits per sample:   16
Bitrate:           888 kbps
Codec:             Monkey's Audio
================================================================================

Cue Sheet (.cue):

Код:

REM GENRE Pop
REM DATE 1997
REM DISCID C70AF00D
REM COMMENT "ExactAudioCopy v1.0b3"
PERFORMER "The Kelly Family"
TITLE "Growin' Up"
FILE "The Kelly Family - Growin' Up.ape" WAVE
  TRACK 01 AUDIO
    TITLE "Because It's Love"
    PERFORMER "The Kelly Family"
    INDEX 01 00:00:00
  TRACK 02 AUDIO
    TITLE "Angels Flying"
    PERFORMER "The Kelly Family"
    INDEX 00 03:44:27
    INDEX 01 03:46:27
  TRACK 03 AUDIO
    TITLE "I'll Swim I'll Swim"
    PERFORMER "The Kelly Family"
    INDEX 00 07:43:20
    INDEX 01 07:45:20
  TRACK 04 AUDIO
    TITLE "Life Is Hard Enough"
    PERFORMER "The Kelly Family"
    INDEX 00 10:56:37
    INDEX 01 10:58:37
  TRACK 05 AUDIO
    TITLE "Wish I Were A Swallow"
    PERFORMER "The Kelly Family"
    INDEX 00 14:38:52
    INDEX 01 14:40:52
  TRACK 06 AUDIO
    TITLE "Ego"
    PERFORMER "The Kelly Family"
    INDEX 00 17:39:47
    INDEX 01 17:41:47
  TRACK 07 AUDIO
    TITLE "One More Song"
    PERFORMER "The Kelly Family"
    INDEX 00 20:32:72
    INDEX 01 20:34:72
  TRACK 08 AUDIO
    TITLE "Rock'n Roll Stole My Soul"
    PERFORMER "The Kelly Family"
    INDEX 00 24:52:07
    INDEX 01 24:54:07
  TRACK 09 AUDIO
    TITLE "Red Shoes"
    PERFORMER "The Kelly Family"
    INDEX 00 28:15:47
    INDEX 01 28:17:47
  TRACK 10 AUDIO
    TITLE "Leave It To The Spirits"
    PERFORMER "The Kelly Family"
    INDEX 00 32:25:27
    INDEX 01 32:27:27
  TRACK 11 AUDIO
    TITLE "Big Mouth On TV"
    PERFORMER "The Kelly Family"
    INDEX 00 35:21:12
    INDEX 01 35:23:12
  TRACK 12 AUDIO
    TITLE "Another World"
    PERFORMER "The Kelly Family"
    INDEX 00 38:05:60
    INDEX 01 38:07:60
  TRACK 13 AUDIO
    TITLE "All Along The Way (I Will Be With You)"
    PERFORMER "The Kelly Family"
    INDEX 00 42:04:62
    INDEX 01 42:06:62

Отчёт auCDtect Task manager:

Код:

-----------------------

DON'T MODIFY THIS FILE

-----------------------

PERFORMER: auCDtect Task Manager, ver. 1.6.0 RC1 build 1.6.0.1
Copyright (c) 2008-2010 y-soft. All rights reserved
http://y-soft.org

ANALYZER: auCDtect: CD records authenticity detector, version 0.8.2
Copyright (c) 2004 Oleg Berngardt. All rights reserved.
Copyright (c) 2004 Alexander Djourik. All rights reserved.

FILE: The Kelly Family - Growin' Up.ape
  Size: 311003580 Hash: 7FC86456A8D15AEBF3CE4C14543AE474 Accuracy: -m0
  Conclusion: CDDA 100%
  Signature: D7E6C378DE5A9FED89E49F2CB69D4AAE08B9BEDF

Спектрограмма:



Covers:







YouTube YouTube YouTube

Детали торрента:
Название:The Kelly Family - Growin' Up (1997) [APE|Lossless|image + .cue] <Country Rock, Pop Rock>
Дата добавления:31 Май 2016 07:13:09
Размер:298 MB
Раздают:1
Качают:0
Форум:Rock (Lossless)

All rights reserved © 2015-2019