TORRENTS45.XYZ

Скачать Беглые родственники (2016) DVB [H.264] (серии 1-20 из 20)


Беглые родственники (2016) DVB [H.264] (серии 1-20 из 20)
Производство: Россия / "Арт Пикчерс Вижн" по заказу СТС
Жанр: комедия, семейный

Режиссер: Константин Смирнов
Актеры: Сергей Жигунов, Дмитрий Ендальцев, Анна Андрусенко, Жанна Эппле, Анастасия Чистякова, Анатолий Журавлёв, Агриппина Стеклова, Александр Ревенко, Евгений Антропов, Артём Крестников, Константин Шелягин, Евгений Кушпель и др.

Описание:
Однажды Дима встретил Юлю, и они полюбили друг друга. Юля — девушка из простой семьи, а Дима — сын олигарха Бориса Чуйкина. Только об этом никто не знает, потому что Дима не носит фамилию отца, не гордится им и сам зарабатывает себе на жизнь. Дело идет к свадьбе, как вдруг в жизнь будущих молодоженов, а точнее в уютную квартирку Димы, врывается вся его сумасшедшая семейка: отец, которого разыскивают за организацию строительной пирамиды, эксцентричная мама и заносчивая сестра. Но что еще хуже, родители Юли — обманутые Борисом Чуйкиным дольщики. Теперь Диме нужно не только помирить две семьи, но и прокормить беглых родственников, привыкших ни в чем себе не отказывать.



Продолжительность: ~00:25:00 серия
Качество видео: DVB

Видео: AVC/H.264, 720x576@768х576 (4:3), ~3000 Kbps
Аудио: AC3, 2 ch, 192 Kbps, CBR

MediaInfo:

Код:
Общее
Уникальный идентификатор                 : 228730921296082882914146989054270182209 (0xAC13F91A02B833AD91E455F6D5ED1341)
Полное имя                               : F:\DOWNLOADS\Беглые родственники (2016) DVB\Беглые родственники - 01 серия.mkv
Формат                                   : Matroska
Версия формата                           : Version 2
Размер файла                             : 597 Мбайт
Продолжительность                        : 25 м.
Режим общего битрейта                    : Переменный
Общий поток                              : 3315 Кбит/сек
Дата кодирования                         : UTC 2016-05-29 09:25:59
Программа кодирования                    : mkvmerge v7.8.0 ('River Man') 32bit built on Apr  3 2015 12:11:22
Библиотека кодирования                   : libebml v1.3.1 + libmatroska v1.4.2

Видео
Идентификатор                            : 1
Формат                                   : AVC
Формат/Информация                        : Advanced Video Codec
Профиль формата                          : High@L4.1
Параметр CABAC формата                   : Да
Параметр ReFrames формата                : 3 кадра
Идентификатор кодека                     : V_MPEG4/ISO/AVC
Продолжительность                        : 25 м.
Вид битрейта                             : Переменный
Битрейт                                  : 3057 Кбит/сек
Максимальный битрейт                     : 40,0 Мбит/сек
Ширина                                   : 720 пикселей
Высота                                   : 576 пикселей
Соотношение сторон                       : 4:3
Соотношение сторон в оригинале           : 4:3
Режим частоты кадров                     : Постоянный
Частота кадров                           : 25,000 кадров/сек
Стандарт вещания                         : Component
Цветовое пространство                    : YUV
Субдискретизация насыщенности            : 4:2:0
Битовая глубина                          : 8 бит
Тип развёртки                            : Чересстрочная
Метод сохранения типа развёртки          : Раздельные поля
Порядок развёртки                        : Верхнее поле первое
Бит/(Пиксели*Кадры)                      : 0.295
Размер потока                            : 551 Мбайт (92%)
Default                                  : Да
Forced                                   : Нет
Цветовой диапазон                        : Limited
Основные цвета                           : BT.601 PAL
Характеристики трансфера                 : BT.470 System B, BT.470 System G
Коэффициенты матрицы                     : BT.601

Аудио
Идентификатор                            : 2
Формат                                   : AC-3
Формат/Информация                        : Audio Coding 3
Расширение режима                        : CM (complete main)
Параметр Endianness формата              : Big
Идентификатор кодека                     : A_AC3
Продолжительность                        : 25 м.
Вид битрейта                             : Постоянный
Битрейт                                  : 192 Кбит/сек
Каналы                                   : 2 канала
Расположение каналов                     : Front: L R
Частота                                  : 48,0 КГц
Частота кадров                           : 31,250 кадров/сек (1536 spf)
Метод сжатия                             : С потерями
Размер потока                            : 34,6 Мбайт (6%)
Default                                  : Да
Forced                                   : Нет
Скриншоты:


Все раздачи сериала «Беглые родственники»
Детали торрента:
Название:Беглые родственники (2016) DVB [H.264] (серии 1-20 из 20)
Дата добавления:29 Май 2016 12:35:17
Размер:11,1 GB
Раздают:
Качают:0
Форум:Отечественные сериалы

All rights reserved © 2015-2018