TORRENTS45.XYZ

Скачать Jon Lord - Concerto For Group & Orchestra (2012) [FLAC|Lossless|image + .cue] <Rock, Classical Crossover, Progressive rock>


Jon Lord - Concerto For Group & Orchestra (2012)
Дата: September 25, 2012
Жанр: Rock, Classical Crossover, Neoclassical, Progressive rock
Издание: Thomson Music, Eagle Records & Студия "Союз"(Россия) - SZCD 6082-12
Продолжительность: 00:46:52
Кодек: FLAC
Битрейт: Lossless
Тип рипа: image + .cue

Треклист:
01. Movement One: Moderato - Allegro (16:23)
02. Movement Two: Andante (19:37)
03. Movement Three: Vivace - Presto (10:52)

Silentkey of Jon Lord:

The orchestra sessions took place at Philharmonic Hall, Liverpool, UK, on June 1st and 2nd, 2011, followed by two days of overdubbing at Abbey Road studios, London, on August 13th (with Jon lord and Bruce Dickinson) and on October 20th (with Kasia Laska, Steve Balsamo, and Joe Bonamassa). On May 9th 2012, Steve Morse took a few hours off from working on the new Deep Purple album in Germany to revisit the final, while Darin Vasilev added his guitar to the first movement in Sofia and in London. Mixing took place at Abbey road with the brilliant Andrew Dudman over two days in late May 2012.
Joe Bonamassa, Guy Pratt, Steve Balsamo and others. Ian Gillan, long-time frontman with Purple, contributed lyrics.

In this way, Lord’s prog rock-meets-classical piece ends up sounding brand new, even for long-time Purple fans. And sometimes, it actually is: Concerto for Group and Orchestra, issued via Ear Music-Eagle Records and set for expanded-edition release in early December, also showcases additional elements that Lord had continued to work into the piece over the years.
His original recorded take on the concerto dates back to 1969, of course, as memorably recorded with Malcolm Arnold and the Royal Philharmonic Orchestra. Lord also made a pass at it in 1999, collaborating with the London Symphony Orchestra. Over the years, the piece was actually performed some 100 times — notably during Purple’s 2000-01 world tour.
That, as much as anything, is why certain fresh twists leap out of the speakers here: Guitarist Darin Vasilev, for instance, narrows the wildly entertaining, but occasionally meandering 1969 solo taken by Deep Purple co-founder Ritchie Blackmore on the opening “Moderato – Allegro.” Though known for his free-form blues-rock explorations, Bonamassa illustrates on “Andante,” just as he does with Black Country Communion, how communicative and sharp his playing can be when he’s given a more confined playing window. Vocalists Balsamo and Kasia Laska add to the dark portent that initially surrounds this second movement, before Dickinson manages to match — and maybe even exceed — Bonamassa’s fiery intensity.
Then as now, though, the concerto’s final third — Lord’s torrential “Vivace – Presto,” this time featuring some scalding asides from Morse — elicits wave after wave of jaw-dropping wonder. It is here, more than anywhere else, that Lord made the early case for combining these two seemingly disparate genres.


Джон Лорд (Jonathan Douglas Lord; 9 июня 1941, Лестер - 16 июля 2012, Лондон) - выдающийся английский композитор и клавишник, наиболее известен участием в группе "Deep Purple". Участник групп "Artwoods", "Flower Pot Men", "Paice, Ashton & Lord", "Whitesnake". С 2002 года сосредоточился на сольной карьере. Стиль игры Джона Лорда легко узнаваем, как из-за характерного звука Хаммонд-органа, часто используемого музыкантом для исполнения, так и из-за заметного влияния классических композиторов и джаза на произведения музыканта.

Concerto For Group & Orchestra - Легендарное произведение, органичное переплетение рока и классики, впервые записано в студийных условиях.
"После того как я ушел из Deep Purple, я исполнил это произведение более 30 раз с разными оркестрами и дирижерами по всему миру. А в 2000-м я более 30 раз играл Concerto с Purple во время турне Concerto tour. Я постоянно улучшал композицию, у меня была возможность изменить в партитуре те места, которые не очень хорошо звучали. Поэтому так прекрасно и восхитительно наконец-то сделать запись плода всех этих усилий"
Джон Лорд, май 2012 г.
Ритм-секция (Гай Пратт, Бретт Морган и Royal Liverpool Philharmonic Orchestra) была записана в июне 2011 года в Ливерпуле под управлением Пола Манна. Дальше, уже на студии Abbey Road Studios, в Лондоне записывали вокальные (вокалисты: Брюс Дикинсон, Стив Бальсамо, Кася Ласка) и гитарные партии (гитаристы: Джо Банамасса, Дэрин Василев, Стив Морс).
К счастью, Джон смог услышать финальный результат за несколько недель до своей кончины.
Семья и лейбл решили выпустить альбом в сентябре, как и было запланировано. Они посчитали, что нет лучшего способа отдать дань уважения Джону и его прекрасной музыке. "Замечательная студийная запись "Concerto For Group And Orchestra" получилась именно такой, какой Джон хотел, чтобы она была. Concerto, надеемся, станет наследнием Джона для будущих поколений".
Ещё о проекте можно прочитать здесь, под спойлером "Дополнительная информация"

Credits:

Composer: Jon Lord (Jonathan Douglas Lord, ex Deep Purple) (1941-2012)
Conductor: Paul Mann
Ensemble: Royal Liverpool Philharmonic Orchestra
Double Bass: Ashley Frampton, Daniel Hammerton, Genna Spinks, Lowri Morgan, Marcel Becker, Nigel Dufty
Drums: Brett Morgan
Flute: Cormac Henry, Fiona Paterson
Harp: Eleanor Hudson
Horn: Christopher Morley, David Pigott, Simon Griffiths, Timothy Jackson (3), Timothy Nicholson
Lyrics By: Ian Gillan (Deep Purple)
Oboe: Catrin Ruth Davies, Tom Davey
Organ: Jon Lord
Percussion: Harry Percy, Henry Baldwin, Josephine Frieze, Richard Winter (2)
Piccolo Flute: Claire Fillhart
Timpani: Neil Hitt
Trombone: James Blyth Lindsay, Simon Cowen
Trombone [Bass]: Simon Chappell
Trumpet: Brendan Ball, Paul Marsden, Rhys Owens
Tuba: Robin Haggart
Viola: Carolyn Tregaskis, Catherine Marwood*, Daniel Sanxis, David Ruby, Ian Fair, Joanna Wesling, John Robert Shepley, Michael Dale (3), Rebecca Walters, Richard Wallace (3), Ros Cabot
Violin: Adi Brett, Alexander Marks, Claire Stranger-Ford, Concettina Del Vecchio, David Rimbault, David Whitehead (2), Donald Turnbull, Elen Richards*, Helen Boardman, James Justin Evans, Katharine Richardson, Kathryn Cropper, Martin Anthony Burrage, Martin Clark (2), Martin Richardson, Miriam Davis, Nicola Gleed*, Noel Anderson, Patrick James Hutton, Rakhi Singh, Robert John Hebbron, Sheila Gascoyne, Sophie Coles, Stephan Mayer, Steven Wilkie, Thelma Handy, Wendy De St Paer*
Vocals: Bruce Dickinson, Kaskia Łaska*, Steve Balsamo

EAC - log:

Код:

Exact Audio Copy V1.1 from 23. June 2015

EAC extraction logfile from 16. May 2016, 22:56

Jon Lord / Concerto For Group And Orchestra

Used drive  : ASUS    DRW-22B2L   Adapter: 1  ID: 0

Read mode               : Secure
Utilize accurate stream : Yes
Defeat audio cache      : Yes
Make use of C2 pointers : No

Read offset correction                      : 6
Overread into Lead-In and Lead-Out          : No
Fill up missing offset samples with silence : Yes
Delete leading and trailing silent blocks   : No
Null samples used in CRC calculations       : Yes
Used interface                              : Native Win32 interface for Win NT & 2000

Used output format : Internal WAV Routines
Sample format      : 44.100 Hz; 16 Bit; Stereo

TOC of the extracted CD

     Track |   Start  |  Length  | Start sector | End sector
    ---------------------------------------------------------
        1  |  0:00.00 | 16:23.16 |         0    |    73740
        2  | 16:23.16 | 19:36.67 |     73741    |   162007
        3  | 36:00.08 | 10:51.55 |    162008    |   210887

Range status and errors

Selected range

     Filename D:\Rip-Flacmusic.Info\Scullplug\Jon Lord Concerto For Group & OrchestraFM\Jon Lord - Concerto For Group And Orchestra.wav

     Peak level 99.8 %
     Extraction speed 3.0 X
     Range quality 100.0 %
     Test CRC AE0E91EA
     Copy CRC AE0E91EA
     Copy OK

No errors occurred

AccurateRip summary

Track  1  cannot be verified as accurate (confidence 134)  [0FA5ACD6], AccurateRip returned [24C5C1AB]  (AR v2)
Track  2  cannot be verified as accurate (confidence 132)  [85B3AE1B], AccurateRip returned [34C79603]  (AR v2)
Track  3  cannot be verified as accurate (confidence 133)  [D0C8CAAD], AccurateRip returned [90C14898]  (AR v2)

No tracks could be verified as accurate
You may have a different pressing from the one(s) in the database

End of status report

==== Log checksum 36707E4CBCA9374C578A8E5C7844437A5FDBA29A817CE45A4E794EF0DE01E1B2 ====

Cue Sheet (.cue):

Код:

REM GENRE Neoclassic
REM DATE 2012
REM DISCID 230AFB03
REM COMMENT "ExactAudioCopy v1.1"
PERFORMER "Jon Lord"
TITLE "Concerto For Group And Orchestra"
FILE "Jon Lord - Concerto For Group And Orchestra.flac" WAVE
  TRACK 01 AUDIO
    TITLE "Moderato - Allegro"
    PERFORMER "Jon Lord"
    INDEX 01 00:00:00
  TRACK 02 AUDIO
    TITLE "Andante"
    PERFORMER "Jon Lord"
    INDEX 01 16:23:16
  TRACK 03 AUDIO
    TITLE "Vivace - Presto"
    PERFORMER "Jon Lord"
    INDEX 01 36:00:08

auCDtect - log:

Код:

-----------------------

DON'T MODIFY THIS FILE

-----------------------

PERFORMER: auCDtect Task Manager, ver. 1.5.1RC6 build 1.5.1.7
Copyright (c) 2008-2010 y-soft. All rights reserved
http://y-soft.org

ANALYZER: auCDtect: CD records authenticity detector, version 0.8.2
Copyright (c) 2004 Oleg Berngardt. All rights reserved.
Copyright (c) 2004 Alexander Djourik. All rights reserved.

FILE: Jon Lord - Concerto For Group And Orchestra.flac
  Size: 248854925 Hash: B2E760F923297D7E647AD67185957752 Accuracy: -m0
  Conclusion: CDDA 100%
  Signature: 3E4C9A81B06C216143E2ADEFD064889490961E2B
YouTube

Детали торрента:
Название:Jon Lord - Concerto For Group & Orchestra (2012) [FLAC|Lossless|image + .cue] <Rock, Classical Crossover, Progressive rock>
Дата добавления:25 Май 2016 19:11:11
Размер:452 MB
Раздают:
Качают:0
Форум:Rock (Lossless)

All rights reserved © 2015-2019